<?xml version="1.0" standalone="no"?>
<!DOCTYPE svg PUBLIC "-//W3C//DTD SVG 1.1//EN" "http://www.w3.org/Graphics/SVG/1.1/DTD/svg11.dtd" >
<svg xmlns="http://www.w3.org/2000/svg">
<metadata></metadata>
<defs>
<font id="brandon_grotesquethin" horiz-adv-x="1308" >
<font-face units-per-em="2048" ascent="1434" descent="-614" />
<missing-glyph horiz-adv-x="436" />
<glyph unicode="&#xfb01;" horiz-adv-x="1042" d="M55 797v8q0 14 15 14h143v258q0 176 99 276.5t239 100.5q106 0 181 -40t114 -83q6 -6 -2 -14l-13 -12q-7 -7 -14 0q-114 114 -266 114q-124 0 -213.5 -92t-89.5 -250v-258h614q15 0 15 -14v-791q0 -14 -15 -14h-8q-14 0 -14 14v768h-592v-768q0 -14 -15 -14h-6 q-14 0 -14 14v768h-143q-6 0 -10.5 4.5t-4.5 10.5z" />
<glyph unicode="&#xfb02;" horiz-adv-x="1056" d="M55 797v8q0 14 15 14h143v279q0 89 28 159t75.5 112t107 63.5t127.5 21.5q99 0 176.5 -35t126.5 -80v80q0 15 14 15h9q14 0 14 -15v-1405q0 -14 -14 -14h-9q-14 0 -14 14v1276q-134 127 -303 127q-127 0 -215 -81.5t-88 -237.5v-279h391q14 0 14 -14v-8q0 -15 -14 -15 h-391v-768q0 -14 -15 -14h-8q-12 0 -12 14v768h-143q-6 0 -10.5 4.5t-4.5 10.5z" />
<glyph horiz-adv-x="0" />
<glyph horiz-adv-x="682" />
<glyph unicode=" "  horiz-adv-x="436" />
<glyph unicode="&#x09;" horiz-adv-x="436" />
<glyph unicode="&#xa0;" horiz-adv-x="436" />
<glyph unicode="!" horiz-adv-x="606" d="M254 29q0 20 14.5 33.5t34.5 13.5q22 0 35.5 -13.5t13.5 -33.5q0 -21 -14 -35t-35 -14q-20 0 -34.5 14.5t-14.5 34.5zM285 561v858q0 15 14 15h8q6 0 10.5 -4.5t4.5 -10.5v-858q0 -14 -15 -14h-8q-14 0 -14 14z" />
<glyph unicode="&#x22;" horiz-adv-x="591" d="M127 1020v399q0 15 14 15h6q6 0 10.5 -4.5t4.5 -10.5v-399q0 -14 -15 -14h-6q-14 0 -14 14zM430 1020v399q0 15 14 15h7q14 0 14 -15v-399q0 -14 -14 -14h-7q-14 0 -14 14z" />
<glyph unicode="#" horiz-adv-x="1155" d="M115 459v6q0 14 12 14h203l78 398h-224q-14 0 -14 14v8q0 14 14 14h232l98 508q4 13 14 13h7q17 0 14 -17l-98 -504h358l98 508q4 13 15 13h8q15 0 12 -17l-98 -504h194q5 0 9 -4t4 -10v-8q0 -6 -4 -10t-9 -4h-200l-76 -398h219q14 0 14 -14v-6q0 -15 -14 -15h-227 l-82 -432q-4 -12 -15 -12h-8q-17 0 -14 16l84 428h-359l-81 -432q-4 -12 -15 -12h-8q-17 0 -14 16l84 428h-199q-5 0 -8.5 4.5t-3.5 10.5zM369 479h356l76 398h-357z" />
<glyph unicode="$" horiz-adv-x="1116" d="M117 1096q0 65 24.5 125t74.5 112.5t137 85t200 33.5v88q0 14 14 14h8q15 0 15 -14v-90q84 -4 166 -29.5t122 -48.5l40 -24q6 -6 6 -13l-4 -8q0 -9 -8 -13t-15 1q-5 4 -15 10t-42.5 22t-66.5 28.5t-84 24t-99 13.5v-674q106 -30 180.5 -63t133.5 -80t87.5 -111t28.5 -147 q0 -93 -59.5 -174t-158.5 -130t-212 -54v-232q0 -5 -4.5 -8.5t-10.5 -3.5h-8q-14 0 -14 12v232q-82 2 -160 24.5t-132.5 54.5t-84 53.5t-45.5 37.5q-11 7 0 18l6 6q11 10 21 0q19 -17 43.5 -35t77 -49.5t125 -52t149.5 -21.5v695q-85 23 -142.5 43.5t-117.5 52.5t-95.5 69.5 t-58 93.5t-22.5 126zM154 1096q0 -61 19 -110t51.5 -83.5t85.5 -63.5t108.5 -48.5t134.5 -40.5v665q-104 -1 -184 -30t-125.5 -76t-67.5 -101t-22 -112zM590 16q103 4 193.5 48t145 117t54.5 157q0 76 -27.5 134.5t-83 100.5t-121.5 70.5t-161 56.5v-684z" />
<glyph unicode="%" horiz-adv-x="1441" d="M98 1165q0 120 84.5 204.5t204.5 84.5t204.5 -84.5t84.5 -204.5q0 -121 -84.5 -206t-204.5 -85t-204.5 85t-84.5 206zM135 1165q0 -106 73 -180t179 -74q105 0 179.5 74.5t74.5 179.5q0 104 -75 178t-179 74q-105 0 -178.5 -73.5t-73.5 -178.5zM246 25l854 1405q6 9 16 2 l12 -7q11 -6 5 -16l-854 -1405q-7 -11 -15 -6l-16 10q-9 6 -2 17zM733 268q0 122 84 206.5t205 84.5q119 0 204 -85t85 -206q0 -120 -85 -204t-204 -84q-121 0 -205 84t-84 204zM768 268q0 -104 74 -178t180 -74q104 0 178 74t74 178q0 106 -74 180t-178 74q-106 0 -180 -74 t-74 -180z" />
<glyph unicode="&#x26;" horiz-adv-x="1423" d="M209 354q0 76 24 140.5t69.5 115.5t100 90t125.5 74l-61 64q-160 160 -160 313q0 50 20 101.5t59 97.5t106.5 75t152.5 29q153 0 235.5 -89.5t82.5 -213.5q0 -112 -101 -209t-268 -174h-2l495 -489q78 104 121 228t43 243q0 17 -4 63q0 6 4.5 11t10.5 5h8q14 0 14 -12 q4 -46 4 -67q0 -125 -45.5 -255.5t-128.5 -238.5l229 -227q10 -10 3 -17l-15 -12q-6 -6 -14 2l-227 223q-94 -115 -222 -180t-278 -65q-169 0 -275 108.5t-106 265.5zM244 354q0 -142 96 -240t250 -98q278 0 475 234l-510 502q-146 -73 -228.5 -167t-82.5 -231zM342 1151 q0 -127 150 -285l73 -73q363 166 363 358q0 109 -73.5 187.5t-209.5 78.5q-77 0 -137.5 -25.5t-95 -65.5t-52.5 -85t-18 -90z" />
<glyph unicode="'" horiz-adv-x="290" d="M127 1020v399q0 15 14 15h9q14 0 14 -15v-399q0 -14 -14 -14h-9q-14 0 -14 14z" />
<glyph unicode="(" horiz-adv-x="704" d="M139 647q0 174 29 313t76 228t112.5 149.5t133.5 86.5t143 30q14 0 14 -14v-8q0 -15 -14 -15q-70 -4 -133 -29t-123.5 -82.5t-104 -142t-70 -217t-26.5 -299.5t26.5 -300.5t70 -218.5t104.5 -142t123.5 -82t132.5 -29q14 0 14 -14v-8q0 -5 -4 -9t-10 -4q-75 3 -143 29 t-133.5 86.5t-112.5 149.5t-76 228.5t-29 313.5z" />
<glyph unicode=")" horiz-adv-x="704" d="M57 -139q0 14 15 14q70 4 132.5 29t123 82t104 142t70 218.5t26.5 300.5t-26.5 299.5t-70 217t-104 142t-123 82.5t-132.5 29q-6 0 -10.5 4.5t-4.5 10.5v8q0 14 15 14q75 -4 143 -30t133 -86.5t112 -149.5t76 -228t29 -313t-29 -313.5t-76 -228.5t-112 -149.5t-133 -86.5 t-143 -29q-6 0 -10.5 4t-4.5 9v8z" />
<glyph unicode="*" horiz-adv-x="720" d="M96 989q-3 10 6 15l220 129l-220 129q-10 5 -4 14l6 12q5 11 17 4l221 -127v254q0 15 14 15h9q14 0 14 -15v-254l221 127q11 6 16 -4l7 -12q6 -9 -5 -14l-219 -129l219 -129q10 -5 7 -15l-9 -14q-5 -7 -16 -2l-221 127v-254q0 -15 -14 -15h-9q-14 0 -14 15v254l-221 -127 q-12 -6 -17 2z" />
<glyph unicode="+" horiz-adv-x="1050" d="M113 709v8q0 14 14 14h381v379q0 14 14 14h8q15 0 15 -14v-379h379q14 0 14 -14v-8q0 -15 -14 -15h-379v-381q0 -14 -15 -14h-8q-14 0 -14 14v381h-381q-14 0 -14 15z" />
<glyph unicode="," horiz-adv-x="536" d="M211 27q0 19 13.5 32t33.5 13q39 0 73 -48t34 -141q0 -39 -13 -74.5t-31.5 -58t-37.5 -39t-32 -23.5l-13 -7q-14 -7 -19 2l-6 12q-6 13 6 18q4 2 11.5 6t26 19.5t32.5 33.5t25.5 48t11.5 63q0 72 -27 117q-20 -20 -41 -20q-20 0 -33.5 14t-13.5 33z" />
<glyph unicode="-" horiz-adv-x="1222" d="M350 512v8q0 15 12 15h498q5 0 8.5 -4.5t3.5 -10.5v-8q0 -14 -12 -14h-498q-12 0 -12 14z" />
<glyph unicode="." horiz-adv-x="491" d="M197 29q0 20 14.5 33.5t34.5 13.5q22 0 35.5 -13.5t13.5 -33.5q0 -21 -14 -35t-35 -14q-20 0 -34.5 14.5t-14.5 34.5z" />
<glyph unicode="/" horiz-adv-x="684" d="M90 12l502 1411q4 11 14 11h15q12 0 8 -13l-504 -1413q-3 -8 -14 -8h-15q-10 0 -6 12z" />
<glyph unicode="0" horiz-adv-x="1351" d="M170 698q0 340 132.5 530.5t373.5 190.5t373.5 -190.5t132.5 -530.5q0 -339 -133 -530t-373 -191t-373 191t-133 530zM207 698q0 -324 122 -504t347 -180t347 180t122 504t-122 504t-347 180t-347 -180t-122 -504z" />
<glyph unicode="1" horiz-adv-x="655" d="M31 1108q-4 8 4 14l377 277q8 6 15 1t7 -14v-1372q0 -14 -14 -14h-8q-15 0 -15 14v1329l-340 -251q-10 -7 -16 2z" />
<glyph unicode="2" horiz-adv-x="1075" d="M76 9.5q-4 9.5 4 15.5l584 544q119 111 182 217t63 226q0 155 -109.5 262.5t-305.5 107.5q-64 0 -121 -19.5t-92.5 -47.5t-62 -56t-37.5 -47l-11 -20q-5 -10 -14 -6l-15 8q-11 7 -4 18q4 8 13 22t41 49.5t69.5 62.5t100.5 49t133 22q109 0 196.5 -33t142.5 -89t84 -128.5 t29 -154.5q0 -127 -66 -238.5t-192 -228.5l-543 -508h777q14 0 14 -14v-9q0 -14 -14 -14h-832q-10 0 -14 9.5z" />
<glyph unicode="3" horiz-adv-x="1148" d="M121 164q-8 10 0 18l10 8q10 7 19 -2q60 -63 107 -93q119 -79 282 -79q197 0 313.5 102.5t116.5 262.5q0 129 -102.5 227.5t-260.5 98.5h-276q-15 0 -15 14v8q0 14 15 14h276q131 0 228.5 91.5t97.5 228.5q0 139 -98.5 229t-258.5 90q-69 0 -133.5 -17.5t-106 -42.5 t-73.5 -50t-46 -42l-15 -18q-7 -11 -17 -4l-12 9q-10 7 -4 16q6 7 17 19.5t49 44.5t81.5 56t114 44t145.5 20q176 0 285 -99.5t109 -254.5q0 -118 -72 -210.5t-178 -125.5q126 -32 206.5 -131t80.5 -215q0 -174 -128 -287.5t-339 -113.5q-72 0 -137 15.5t-105.5 33.5 t-82 49.5t-55.5 45.5t-38 40z" />
<glyph unicode="4" horiz-adv-x="1204" d="M32.5 333q-3.5 7 2.5 15l887 1073q4 8 13 5t9 -13v-1053h146q14 0 14 -12v-8q0 -14 -14 -14h-146v-312q0 -14 -14 -14h-6q-15 0 -15 14v312h-864q-9 0 -12.5 7zM92 360h817v992z" />
<glyph unicode="5" horiz-adv-x="1144" d="M156 156q-8 10 0 18l10 8q8 6 18 -4q139 -162 373 -162q194 0 321.5 127.5t127.5 311.5q0 190 -114 289t-333 96h-371q-14 0 -14 14v528q0 15 14 15h668q14 0 14 -15v-6q0 -14 -14 -14h-645v-488h348q235 3 359 -105.5t124 -313.5q0 -130 -61.5 -238.5t-173.5 -172.5 t-250 -64q-253 0 -401 176z" />
<glyph unicode="6" horiz-adv-x="1159" d="M129 565q0 117 29 224.5t75.5 188.5t109.5 153.5t125 122t128.5 91t114 63.5t86.5 36q13 4 16 -6l4 -15q3 -11 -8 -16q-36 -13 -77.5 -32t-101 -54t-115 -77t-114.5 -103t-104.5 -129t-80 -158t-46.5 -188q30 40 66.5 76t92.5 76.5t132.5 64.5t161.5 24 q119 0 220.5 -54.5t164.5 -159t63 -238.5q0 -97 -37 -185.5t-99.5 -151.5t-147.5 -100.5t-177 -37.5q-148 0 -259 78.5t-166.5 210t-55.5 296.5zM164 565q0 -156 51 -279t153.5 -196.5t241.5 -73.5q174 0 300 128.5t126 310.5q0 124 -58.5 220t-151.5 145.5t-203 49.5 q-59 0 -115 -14t-96.5 -32t-82 -50t-63 -51.5t-49.5 -54.5t-32 -41.5t-18 -28.5l-2 -2t-1 -2v-29z" />
<glyph unicode="7" horiz-adv-x="980" d="M51 1376v6q0 6 4.5 10.5t10.5 4.5h872q7 0 11 -6.5t1 -12.5l-604 -1376q-6 -11 -16 -6l-11 4q-9 5 -4 18l590 1344h-839q-15 0 -15 14z" />
<glyph unicode="8" horiz-adv-x="1196" d="M141 358q0 136 99 230t270 123q-150 30 -241 119t-91 214q0 71 23.5 133.5t71 116t130.5 84.5t191 31t192.5 -31.5t133.5 -84t73.5 -116t24.5 -133.5q0 -126 -90 -214.5t-240 -118.5q173 -30 270 -120.5t97 -232.5q0 -96 -35.5 -170t-98.5 -118.5t-145 -67t-180 -22.5 q-97 0 -178.5 22.5t-144 67t-97.5 118.5t-35 170zM176 358q0 -88 32 -155t89.5 -108.5t133 -62t165.5 -20.5t166 20.5t134.5 62t91 108.5t32.5 155q0 134 -115.5 225.5t-306.5 104.5q-195 -14 -308.5 -100.5t-113.5 -229.5zM215 1044q0 -136 107.5 -218t275.5 -91 q168 9 275.5 91t107.5 218q0 64 -23 121.5t-68 105.5t-121.5 76.5t-174.5 28.5t-173.5 -28.5t-119 -76.5t-65 -105.5t-21.5 -121.5z" />
<glyph unicode="9" horiz-adv-x="1159" d="M88 952q0 97 37 185.5t99.5 151.5t147.5 100.5t177 37.5q148 0 259 -78.5t166.5 -210t55.5 -296.5q0 -117 -29 -224.5t-75.5 -188.5t-109.5 -153.5t-125 -122t-128.5 -91t-114 -63.5t-86.5 -36q-13 -4 -16 6l-4 15q-3 11 8 16q36 13 77.5 32t101 54t115 77t114.5 103 t104.5 129t80 158t46.5 188q-181 -241 -452 -241q-119 0 -220.5 54.5t-165 159t-63.5 238.5zM123 952q0 -124 58.5 -220t152 -145.5t203.5 -49.5q81 0 155.5 25.5t121.5 57.5t90 77t59 67t29 44q1 2 2 3t1 2v29q0 156 -51 279t-153.5 196.5t-241.5 73.5q-174 0 -300 -128.5 t-126 -310.5z" />
<glyph unicode=":" horiz-adv-x="593" d="M248 29q0 20 14.5 33.5t34.5 13.5q22 0 35.5 -13.5t13.5 -33.5q0 -21 -14 -35t-35 -14q-20 0 -34.5 14.5t-14.5 34.5zM248 791q0 21 14 35t35 14q22 0 35.5 -13.5t13.5 -35.5q0 -19 -14 -33.5t-35 -14.5q-20 0 -34.5 14.5t-14.5 33.5z" />
<glyph unicode=";" horiz-adv-x="616" d="M250 791q0 21 14 35t33 14q22 0 35.5 -13.5t13.5 -35.5q0 -19 -14 -33.5t-35 -14.5q-19 0 -33 14.5t-14 33.5zM251 -296.5q1 6.5 9 9.5q4 2 11.5 6t26 19.5t32.5 33.5t25.5 48t11.5 63q0 72 -27 117q-20 -20 -41 -20q-20 0 -33.5 14t-13.5 33t13.5 32t33.5 13 q39 0 73 -48t34 -141q0 -39 -13.5 -75t-32.5 -58.5t-38 -39.5t-32 -24l-14 -8q-1 -2 -6 -1t-8 4l-6 10q-6 6 -5 12.5z" />
<glyph unicode="&#x3c;" horiz-adv-x="897" d="M58 475q0 7 8 12l747 482q13 6 18 -4l7 -11q8 -12 -4 -18l-717 -461l717 -446q12 -6 4 -19l-7 -10q-5 -10 -18 -4l-747 467q-8 5 -8 12z" />
<glyph unicode="=" horiz-adv-x="1361" d="M328 375v8q0 14 14 14h678q14 0 14 -14v-8q0 -15 -14 -15h-678q-14 0 -14 15zM328 797v8q0 14 14 14h678q14 0 14 -14v-8q0 -15 -14 -15h-678q-14 0 -14 15z" />
<glyph unicode="&#x3e;" horiz-adv-x="897" d="M59 10q-9 13 4 19l717 446l-717 461q-12 6 -4 18l7 11q5 10 18 4l747 -482q7 -5 7 -12t-7 -12l-747 -467q-13 -6 -18 4z" />
<glyph unicode="?" horiz-adv-x="1032" d="M129 1270q5 7 14.5 19.5t44.5 44.5t75.5 56t107.5 44t141 20q162 0 264.5 -86t102.5 -215q0 -54 -20.5 -104.5t-49 -86.5t-71 -71.5t-72 -55t-66.5 -40.5q-20 -10 -32.5 -18t-30 -24t-26.5 -38.5t-9 -50.5v-123q0 -6 -4.5 -10.5t-10.5 -4.5h-8q-14 0 -14 15v123 q0 16 2.5 31t8.5 27.5t10.5 22.5t15 20.5t15.5 16t18 14.5t17 11.5t17.5 10.5t14.5 9q43 23 81 49.5t82 67.5t70.5 95.5t26.5 113.5q0 114 -92.5 189t-239.5 75q-68 0 -129.5 -17.5t-100.5 -42t-68 -49t-42 -42.5l-12 -17q-3 -4 -8.5 -5.5t-8.5 1.5l-10 8q-9 9 -4 17z M444 29q0 20 14 33.5t34 13.5q22 0 35.5 -13.5t13.5 -33.5q0 -21 -14 -35t-35 -14q-20 0 -34 14.5t-14 34.5z" />
<glyph unicode="@" horiz-adv-x="2048" d="M106 461q0 217 67 400.5t188.5 314.5t298.5 204.5t389 73.5q201 0 365 -64.5t273 -179t167.5 -272t58.5 -342.5q0 -73 -7.5 -140.5t-24.5 -139.5t-48 -130.5t-75 -105.5t-109 -73.5t-146 -26.5q-93 0 -150 45t-73 118q-98 -163 -311 -163q-176 0 -285 125t-109 313 q0 181 114 301.5t286 120.5q178 0 299 -111v76q0 14 14 14h8q15 0 15 -14v-592q0 -88 50 -142.5t142 -54.5q87 0 154.5 36.5t108 93.5t67 136t36 155t9.5 159q0 178 -56 328.5t-160.5 260t-261.5 171t-351 61.5q-273 0 -480 -122t-317.5 -338.5t-110.5 -495.5 q0 -309 164.5 -539.5t439.5 -347.5q11 -6 7 -14l-7 -13q-6 -11 -16 -6q-137 58 -250 147t-197 204t-130 261t-46 308zM612 418q0 -172 98.5 -287t258.5 -115q67 0 123 20.5t88.5 50t55 58.5t30.5 49l8 21v459q-4 6 -16 19t-39 32.5t-59.5 36.5t-82 29t-102.5 12 q-158 0 -260.5 -109.5t-102.5 -275.5z" />
<glyph unicode="A" d="M16 14l631 1454q5 9 10 9h5q6 0 10 -9l618 -1454q1 -2 1 -4q0 -6 -7 -8l-18 -6h-3q-5 0 -8 6l-182 428h-837l-185 -428q-3 -6 -8 -6h-2l-18 6q-8 2 -8 8q0 2 1 4zM252 465h805l-398 938z" />
<glyph unicode="B" horiz-adv-x="1280" d="M229 14v1405q0 6 4.5 10.5t10.5 4.5h422q196 0 313 -95.5t117 -267.5q0 -124 -69.5 -210t-190.5 -122q142 -27 223.5 -116t81.5 -238q0 -171 -127.5 -278t-329.5 -107h-440q-15 0 -15 14zM266 37h418q188 0 304 96t116 252q0 164 -107.5 247t-287.5 83h-443v-678z M266 752h404q174 0 281.5 85.5t107.5 233.5q0 156 -106.5 241t-286.5 85h-400v-645z" />
<glyph unicode="C" horiz-adv-x="1495" d="M125 715q0 152 58.5 289t158 235.5t237 156.5t289.5 58q149 0 268 -48t230 -142q5 -5 5 -9t-3 -8l-10 -12q-8 -9 -17 0q-105 91 -218 136.5t-255 45.5q-144 0 -275 -55t-225.5 -149t-150 -224t-55.5 -274q0 -192 94.5 -353t256.5 -253.5t355 -92.5q264 0 473 191 q10 10 17 0l10 -12q4 -4 4 -7.5t-4 -7.5q-209 -200 -500 -200q-152 0 -289.5 57.5t-237 155t-158 234t-58.5 288.5z" />
<glyph unicode="D" horiz-adv-x="1501" d="M229 14v1405q0 6 4 10.5t9 4.5h409q147 0 281 -56.5t230.5 -152.5t154 -228.5t57.5 -277.5q0 -196 -97 -361.5t-263.5 -261.5t-362.5 -96h-409q-5 0 -9 4t-4 10zM264 37h387q140 0 267 53.5t219.5 144.5t147 217.5t54.5 266.5q0 184 -92.5 340.5t-250.5 247t-345 90.5 h-387v-1360z" />
<glyph unicode="E" horiz-adv-x="1249" d="M229 14v1405q0 6 4.5 10.5t10.5 4.5h833q6 0 10.5 -4.5t4.5 -10.5v-8q0 -14 -15 -14h-811v-633h713q14 0 14 -14v-9q0 -14 -14 -14h-713v-690h811q15 0 15 -14v-9q0 -14 -15 -14h-833q-15 0 -15 14z" />
<glyph unicode="F" horiz-adv-x="1198" d="M229 14v1405q0 6 4.5 10.5t10.5 4.5h833q6 0 10.5 -4.5t4.5 -10.5v-8q0 -14 -15 -14h-811v-684h713q14 0 14 -15v-8q0 -14 -14 -14h-713v-662q0 -14 -14 -14h-8q-15 0 -15 14z" />
<glyph unicode="G" horiz-adv-x="1546" d="M125 715q0 152 58.5 289t158 235.5t237 156.5t289.5 58q149 0 268 -48t230 -142q8 -8 2 -17l-10 -12q-8 -9 -17 0q-105 91 -218 136.5t-255 45.5q-144 0 -275 -55t-225.5 -149t-150 -224t-55.5 -274q0 -192 94.5 -353t256.5 -253.5t355 -92.5q96 0 183.5 16.5t147 42 t95.5 46t56 37.5v481h-465q-15 0 -15 14v9q0 5 4.5 8.5t10.5 3.5h487q14 0 14 -12v-519q-5 -9 -27.5 -26t-68.5 -41t-103.5 -45t-142.5 -36t-176 -15q-152 0 -289.5 57.5t-237 155t-158 234t-58.5 288.5z" />
<glyph unicode="H" horiz-adv-x="1540" d="M229 14v1405q0 6 4.5 10.5t10.5 4.5h8q14 0 14 -15v-655h1008v655q0 15 14 15h8q6 0 10.5 -4.5t4.5 -10.5v-1405q0 -14 -15 -14h-8q-14 0 -14 14v713h-1008v-713q0 -14 -14 -14h-8q-15 0 -15 14z" />
<glyph unicode="I" horiz-adv-x="495" d="M229 14v1405q0 6 4.5 10.5t10.5 4.5h8q14 0 14 -15v-1405q0 -14 -14 -14h-8q-15 0 -15 14z" />
<glyph unicode="J" horiz-adv-x="776" d="M-61 137q-4 5 -4 10t6 9l8 6q9 6 16 -4q114 -142 291 -142q168 0 257 109.5t89 312.5v981q0 15 14 15h7q14 0 14 -15v-981q0 -218 -99 -338t-282 -120q-195 0 -317 157z" />
<glyph unicode="K" horiz-adv-x="1144" d="M229 14v1405q0 6 4.5 10.5t10.5 4.5h8q14 0 14 -15v-682l762 695q5 5 10.5 5t10.5 -5l6 -7q10 -10 0 -20l-756 -686l776 -696q8 -8 8 -14q0 -5 -4 -9l-8 -8q-3 -3 -6 -3q-5 0 -12 7l-787 704v-686q0 -14 -14 -14h-8q-15 0 -15 14z" />
<glyph unicode="L" horiz-adv-x="1001" d="M229 14v1405q0 6 4.5 10.5t10.5 4.5h8q5 0 8.5 -4.5t3.5 -10.5v-1382h715q14 0 14 -14v-9q0 -14 -14 -14h-735q-15 0 -15 14z" />
<glyph unicode="M" horiz-adv-x="1759" d="M106 16l302 1442q2 10 13.5 10t14.5 -10l445 -1384l438 1384q3 10 14.5 10t14.5 -10l309 -1442q1 -4 1 -6q0 -8 -7 -10l-17 -4q-9 -3 -12 12l-295 1356l-432 -1380q-3 -10 -14.5 -10t-14.5 10l-440 1380l-285 -1356q-3 -15 -12 -12l-16 4q-8 2 -8 10q0 3 1 6z" />
<glyph unicode="N" horiz-adv-x="1581" d="M229 14v1440q1 11 11 14q3 1 4 1q7 0 12 -7l1059 -1411v1368q0 15 14 15h8q6 0 10.5 -4.5t4.5 -10.5v-1435q0 -10 -10 -14q-3 -1 -6 -1q-7 0 -11 6l-1059 1411v-1372q0 -14 -14 -14h-8q-15 0 -15 14z" />
<glyph unicode="O" horiz-adv-x="1732" d="M127 715q0 152 58 289t156.5 235.5t235.5 156.5t289 58t289.5 -58t236.5 -156.5t157.5 -235.5t58.5 -289t-58.5 -288.5t-157.5 -234t-236.5 -155t-289.5 -57.5t-289 57.5t-235.5 155t-156.5 234t-58 288.5zM164 715q0 -192 93.5 -353t254.5 -253.5t354 -92.5 q144 0 274.5 54.5t225 148t150 223t55.5 273.5t-55.5 274t-150 224t-225 149t-274.5 55q-192 0 -353.5 -93.5t-255 -255t-93.5 -353.5z" />
<glyph unicode="P" horiz-adv-x="1220" d="M229 14v1405q0 6 4.5 10.5t10.5 4.5h426q127 0 235 -62.5t171 -169t63 -231.5q0 -193 -137.5 -331t-329.5 -138h-406v-488q0 -14 -14 -14h-8q-15 0 -15 14zM266 539h406q177 0 303.5 127t126.5 305q0 175 -127 300.5t-305 125.5h-404v-858z" />
<glyph unicode="Q" horiz-adv-x="1734" d="M127 715q0 152 58 289t156.5 235.5t235.5 156.5t289 58t289.5 -58t236.5 -156.5t157.5 -235.5t58.5 -289q0 -238 -134.5 -424t-351.5 -264l240 -394q7 -10 -2 -16l-19 -10q-2 -1 -4 -1q-5 0 -8 7l-242 401q-103 -34 -221 -34q-152 0 -289 57.5t-235.5 155t-156.5 234 t-58 288.5zM164 715q0 -192 93.5 -353t254.5 -253.5t354 -92.5q144 0 274.5 54.5t225 148t150 223t55.5 273.5t-55.5 274t-150 224t-225 149t-274.5 55q-192 0 -353.5 -93.5t-255 -255t-93.5 -353.5z" />
<glyph unicode="R" horiz-adv-x="1327" d="M229 14v1405q0 6 4.5 10.5t10.5 4.5h485q194 0 330.5 -125.5t136.5 -313.5q0 -167 -106 -288.5t-267 -151.5l320 -535q7 -10 -2 -16l-19 -10q-2 -1 -4 -1q-5 0 -8 7l-326 549q-18 -2 -53 -2h-467v-533q0 -14 -12 -14h-8q-15 0 -15 14zM264 582h467q117 0 215.5 53 t156.5 148.5t58 211.5q0 173 -125.5 287.5t-306.5 114.5h-465v-815z" />
<glyph unicode="S" horiz-adv-x="1138" d="M133 1096q0 65 25.5 126.5t76.5 114.5t140.5 85t204.5 32q57 0 115 -10.5t99 -26t74 -31t50 -26.5l16 -10q11 -7 4 -17l-8 -12q-6 -9 -17 -4q-6 4 -17 11t-46 24t-72 30t-91 24t-107 11q-86 0 -156.5 -19t-116.5 -50.5t-77.5 -73.5t-45.5 -86.5t-14 -91.5 q0 -76 27.5 -132.5t85 -96t123 -65.5t165.5 -52q93 -26 159.5 -50.5t127.5 -59.5t98 -76t58.5 -97.5t21.5 -126.5q0 -96 -62.5 -179.5t-167 -132t-222.5 -48.5q-85 0 -165 21.5t-137.5 55.5t-86.5 54.5t-48 38.5q-9 9 0 18l9 8q8 8 18 -2q185 -158 410 -158q166 0 290.5 96 t124.5 228q0 65 -21.5 117.5t-57 89.5t-94 68.5t-119 53t-146.5 44.5q-83 23 -140.5 43.5t-116 52t-93 69.5t-56.5 93t-22 125z" />
<glyph unicode="T" horiz-adv-x="946" d="M12 1411v8q0 6 4.5 10.5t10.5 4.5h893q14 0 14 -15v-8q0 -14 -14 -14h-431v-1383q0 -14 -14 -14h-8q-14 0 -14 14v1383h-426q-15 0 -15 14z" />
<glyph unicode="U" horiz-adv-x="1482" d="M211 516v903q0 15 14 15h8q6 0 10.5 -4.5t4.5 -10.5v-903q0 -224 132.5 -362t358.5 -138q228 0 362 138t134 362v903q0 15 14 15h8q6 0 10.5 -4.5t4.5 -10.5v-903q0 -239 -145 -387.5t-388 -148.5q-242 0 -385 148.5t-143 387.5z" />
<glyph unicode="V" d="M18 1419q-1 2 -1 4q0 6 8 9l18 6h2q4 0 8 -6l594 -1399l608 1399q3 6 8 6h3l18 -6q7 -2 7 -8q0 -2 -1 -5l-631 -1452q-5 -9 -12 -9t-12 9z" />
<glyph unicode="W" horiz-adv-x="1820" d="M84 1419q-1 2 -1 5q0 6 7 8l16 6q10 3 13 -6l397 -1369l377 1387q3 10 14.5 10t14.5 -10l395 -1384l383 1366q3 9 12 6l17 -6q7 -2 7 -8q0 -2 -1 -5l-404 -1444q-3 -11 -14 -11t-14 11l-396 1385l-377 -1385q-3 -11 -14 -11t-14 11z" />
<glyph unicode="X" horiz-adv-x="1118" d="M78 25l457 706l-437 678q-7 11 2 18l13 9q3 1 5 1q6 0 11 -7l430 -666l430 666q5 8 11 8q3 0 6 -2l12 -9q9 -7 2 -18l-438 -678l460 -706q4 -5 4 -10t-6 -9l-12 -8q-3 -1 -5 -1q-6 0 -11 7l-453 692l-450 -692q-5 -8 -11 -8q-3 0 -6 2l-12 8q-6 4 -6 9t4 10z" />
<glyph unicode="Y" horiz-adv-x="1114" d="M-2 1409q-3 5 -3 9q0 5 5 9l12 9q2 1 4 1q6 0 13 -7l528 -695l528 695q5 8 11 8q3 0 6 -2l12 -9q5 -4 5 -9q0 -4 -3 -9l-541 -704v-691q0 -14 -14 -14h-8q-14 0 -14 14v688z" />
<glyph unicode="Z" horiz-adv-x="1081" d="M58 8q-2 4 -2 7q0 4 3 8l899 1374h-817q-14 0 -14 14v8q0 15 14 15h858q9 0 13 -8q2 -4 3 -7q0 -4 -3 -8l-899 -1374h841q15 0 15 -14v-9q0 -14 -15 -14h-882q-10 0 -14 8z" />
<glyph unicode="[" horiz-adv-x="681" d="M180 -600v2019q0 6 4.5 10.5t10.5 4.5h415q6 0 10.5 -4.5t4.5 -10.5v-8q0 -14 -15 -14h-393v-1975h393q15 0 15 -14v-8q0 -14 -15 -14h-415q-15 0 -15 14z" />
<glyph unicode="\" horiz-adv-x="684" d="M57 1419q-4 12 6 15h15q11 0 14 -9l502 -1413q4 -12 -6 -12h-15q-11 0 -14 8z" />
<glyph unicode="]" horiz-adv-x="681" d="M57 -592q0 14 15 14h393v1975h-393q-15 0 -15 14v8q0 6 4.5 10.5t10.5 4.5h415q6 0 10.5 -4.5t4.5 -10.5v-2019q0 -14 -15 -14h-415q-15 0 -15 14v8z" />
<glyph unicode="^" horiz-adv-x="1073" d="M82 840l448 624q4 6 12 6t13 -6l436 -624q7 -10 -4 -17l-12 -8q-10 -7 -17 4l-415 596l-428 -596q-7 -11 -17 -4l-12 8q-11 7 -4 17z" />
<glyph unicode="_" horiz-adv-x="821" d="M57 -35q0 6 4.5 10.5t10.5 4.5h678q14 0 14 -15v-8q0 -12 -14 -12h-678q-6 0 -10.5 3.5t-4.5 8.5v8z" />
<glyph unicode="`" horiz-adv-x="618" d="M111 1350l4 8q6 10 18 6l373 -186q11 -5 6 -15l-4 -10q-6 -11 -19 -6l-372 184q-12 6 -6 19z" />
<glyph unicode="a" horiz-adv-x="892" d="M96 256q0 123 100 202t261 79q106 0 241 -48v76q0 126 -50 182t-177 56q-69 0 -131.5 -15.5t-90.5 -31.5l-28 -15q-11 -7 -18 4l-6 11q-6 11 4 16q11 8 33 19t92 30t145 19q147 0 205.5 -65.5t58.5 -209.5v-551q0 -14 -14 -14h-8q-15 0 -15 14v92q-57 -50 -141 -88 t-176 -38q-123 0 -204 75t-81 201zM133 256q0 -111 70 -175.5t178 -64.5q101 0 189.5 46.5t127.5 95.5v295q-4 1 -25 7.5t-42 12.5t-49.5 12.5t-61 10.5t-63.5 4q-146 0 -235 -68.5t-89 -175.5z" />
<glyph unicode="b" horiz-adv-x="1005" d="M166 14v1405q0 6 3.5 10.5t8.5 4.5h8q6 0 10.5 -4.5t4.5 -10.5v-694q5 5 14 12.5t39.5 27.5t63 35t82 27.5t98.5 12.5q178 0 289.5 -121t111.5 -307q0 -181 -114.5 -306.5t-276.5 -125.5q-189 0 -307 133v-99q0 -14 -15 -14h-8q-12 0 -12 14zM201 170q5 -9 15 -22t37 -38 t59.5 -44.5t85 -34.5t110.5 -15q147 0 251.5 115.5t104.5 280.5q0 170 -101.5 280.5t-264.5 110.5q-52 0 -101.5 -13t-83 -31.5t-60.5 -36.5t-39 -31l-13 -13v-508z" />
<glyph unicode="c" horiz-adv-x="974" d="M102 414q0 183 128 304.5t311 121.5q55 0 107 -11.5t88 -28t63.5 -33.5t40.5 -29l14 -11q8 -8 0 -16l-8 -9q-9 -9 -21 3q-4 4 -12 10.5t-36 23.5t-58.5 30t-79 23.5t-98.5 10.5q-167 0 -285.5 -111t-118.5 -278q0 -112 56.5 -204.5t149 -143t198.5 -50.5q51 0 100.5 13.5 t84.5 32t62 37.5t40 33l14 13q9 9 16 2l10 -10q4 -4 4 -7q0 -2 -2 -5q-5 -6 -15 -15.5t-42.5 -34.5t-68 -44.5t-91 -35t-112.5 -15.5q-116 0 -216.5 55t-161.5 155.5t-61 223.5z" />
<glyph unicode="d" horiz-adv-x="1005" d="M106 412q0 186 112.5 307t291.5 121q49 0 97.5 -12t82.5 -29t61 -34.5t41 -29.5l13 -12v696q0 15 14 15h8q5 0 9 -4.5t4 -10.5v-1405q0 -6 -4 -10t-9 -4h-8q-14 0 -14 14v99q-118 -133 -307 -133q-162 0 -277 125.5t-115 306.5zM141 412q0 -165 105 -280.5t252 -115.5 q58 0 110.5 15t85 34.5t59.5 44.5t37 38t15 22v500q-5 5 -13.5 14t-37.5 32t-61 40.5t-81.5 32t-101.5 14.5q-163 0 -266 -110.5t-103 -280.5z" />
<glyph unicode="e" horiz-adv-x="976" d="M106 414q0 183 110.5 304.5t293.5 121.5q163 0 268 -105t105 -270q0 -47 -9 -62q-4 -8 -12 -8h-717q5 -164 103.5 -271.5t261.5 -107.5q88 0 162.5 27t115.5 61q12 9 17 -2l8 -12q4 -6 -4 -14q-48 -37 -127.5 -66.5t-171.5 -29.5q-183 0 -293.5 124t-110.5 310zM145 430 h699q2 12 2 35q0 150 -95 244t-241 94q-163 0 -261 -105.5t-104 -267.5z" />
<glyph unicode="f" horiz-adv-x="616" d="M66 797v8q0 14 14 14h123v275q0 179 81.5 269.5t223.5 90.5q140 0 233 -88q5 -5 5 -10t-5 -10l-6 -7q-10 -10 -20 0q-83 78 -207 78q-126 0 -197 -81t-71 -242v-275h370q15 0 15 -14v-8q0 -6 -4.5 -10.5t-10.5 -4.5h-370v-768q0 -14 -15 -14h-8q-14 0 -14 14v768h-123 q-14 0 -14 15z" />
<glyph unicode="g" horiz-adv-x="950" d="M82 102q0 42 13.5 77.5t36 59.5t41.5 38.5t40 25.5q-61 81 -61 207q0 139 93.5 234.5t246.5 95.5h63h2h293q14 0 14 -15v-8q0 -14 -14 -14h-186q33 -17 59 -38.5t51 -55.5t39 -84.5t14 -114.5q0 -138 -93 -235t-242 -97q-165 0 -254 96q-16 -7 -32.5 -18t-38 -31.5 t-35 -52.5t-13.5 -70q0 -63 40.5 -101t94.5 -38h377q140 0 219.5 -64t79.5 -198q0 -137 -115.5 -236.5t-298.5 -99.5q-100 0 -181 30.5t-128 79t-71.5 104t-24.5 110.5q0 82 40.5 142.5t98.5 96.5q-66 2 -117 50t-51 124zM147 -311q0 -49 22 -98t65 -92t116.5 -70t165.5 -27 q169 0 273 88t104 211q0 227 -262 227h-291q-18 -2 -47.5 -17.5t-63.5 -43t-58 -75t-24 -103.5zM188 510q0 -126 75.5 -210.5t228.5 -84.5q134 0 216.5 86t82.5 209q0 56 -13 103t-34 76t-46.5 52t-51 34t-46.5 18t-34 9l-13 1h-61q-137 0 -220.5 -84.5t-83.5 -208.5z" />
<glyph unicode="h" horiz-adv-x="1015" d="M166 14v1405q0 15 14 15h8q6 0 10.5 -4.5t4.5 -10.5v-733q143 154 319 154q166 0 253 -97.5t87 -283.5v-445q0 -14 -14 -14h-8q-15 0 -15 14v445q0 167 -77.5 255.5t-225.5 88.5q-63 0 -122.5 -23t-100.5 -56.5t-63 -56t-33 -38.5v-615q0 -14 -15 -14h-8q-14 0 -14 14z " />
<glyph unicode="i" horiz-adv-x="368" d="M145 1284q0 18 11.5 30.5t29.5 12.5q17 0 29 -13t12 -30t-12 -29t-29 -12q-18 0 -29.5 11.5t-11.5 29.5zM166 14v791q0 14 14 14h8q15 0 15 -14v-791q0 -14 -15 -14h-8q-14 0 -14 14z" />
<glyph unicode="j" horiz-adv-x="368" d="M-315 -526l6 6q9 9 18 0q83 -78 207 -78q250 0 250 324v1079q0 14 14 14h8q15 0 15 -14v-1079q0 -361 -287 -361q-76 0 -136.5 27t-94.5 61q-5 5 -5 10.5t5 10.5zM141 1284q0 18 12.5 30.5t30.5 12.5q17 0 29 -13t12 -30t-12 -29t-29 -12q-19 0 -31 12t-12 29z" />
<glyph unicode="k" horiz-adv-x="845" d="M166 14v1405q0 15 14 15h8q6 0 10.5 -4.5t4.5 -10.5v-946l534 356q11 7 17 -2l8 -14q6 -9 -4 -16l-516 -342l549 -430q6 -6 6 -11q0 -4 -4 -8l-11 -12q-3 -6 -7 -6q-3 0 -7 4l-565 446v-424q0 -14 -15 -14h-8q-14 0 -14 14z" />
<glyph unicode="l" horiz-adv-x="368" d="M166 14v1405q0 15 14 15h8q6 0 10.5 -4.5t4.5 -10.5v-1405q0 -14 -15 -14h-8q-14 0 -14 14z" />
<glyph unicode="m" horiz-adv-x="1562" d="M166 14v791q0 14 14 14h8q15 0 15 -14v-113q113 148 301 148q97 0 167 -42t107 -122q14 20 30.5 38.5t45 42.5t60.5 41.5t77 29.5t94 12q158 0 241 -97.5t83 -283.5v-445q0 -14 -14 -14h-9q-14 0 -14 14v445q0 167 -73.5 255.5t-213.5 88.5q-50 0 -95.5 -14t-76 -32.5 t-57.5 -44t-39 -41.5t-22 -32q26 -83 26 -180v-445q0 -14 -14 -14h-8q-15 0 -15 14v445q0 167 -72.5 255.5t-207.5 88.5q-53 0 -101 -14.5t-79.5 -34.5t-59.5 -46t-40 -42.5t-21 -30.5v-621q0 -14 -15 -14h-8q-14 0 -14 14z" />
<glyph unicode="n" horiz-adv-x="1015" d="M166 14v791q0 14 14 14h8q15 0 15 -14v-113q137 148 319 148q166 0 253 -97.5t87 -283.5v-445q0 -14 -14 -14h-8q-15 0 -15 14v445q0 167 -77.5 255.5t-225.5 88.5q-63 0 -123 -22t-100.5 -54.5t-63 -54.5t-32.5 -37v-621q0 -14 -15 -14h-8q-14 0 -14 14z" />
<glyph unicode="o" horiz-adv-x="1040" d="M104 412q0 179 121 303.5t295 124.5t295 -124.5t121 -303.5q0 -181 -120.5 -306.5t-295.5 -125.5t-295.5 125.5t-120.5 306.5zM141 412q0 -166 110 -281t269 -115t269 115t110 281q0 163 -110 277t-269 114t-269 -114t-110 -277z" />
<glyph unicode="p" horiz-adv-x="1005" d="M166 -600v1405q0 14 12 14h8q15 0 15 -14v-76q121 111 295 111q173 0 288 -122t115 -304q0 -188 -115.5 -311t-306.5 -123q-89 0 -161 31t-115 71v-682q0 -14 -15 -14h-8q-12 0 -12 14zM201 137q7 -9 25 -25.5t52.5 -39.5t87.5 -39.5t111 -16.5q176 0 281.5 112.5 t105.5 285.5q0 166 -105 277.5t-263 111.5q-64 0 -121.5 -17t-93 -41.5t-54.5 -42t-26 -28.5v-537z" />
<glyph unicode="q" horiz-adv-x="1005" d="M106 414q0 181 120 303.5t294 122.5q53 0 99.5 -10.5t82.5 -30.5t57 -35t46 -37v78q0 14 14 14h8q5 0 9 -4t4 -10v-1405q0 -6 -4 -10t-9 -4h-8q-14 0 -14 14v684q-45 -41 -115 -72.5t-160 -31.5q-192 0 -308 123t-116 311zM141 414q0 -172 106.5 -285t282.5 -113 q57 0 109 16t86.5 39.5t52.5 40t27 27.5v533q-9 13 -24 28t-50 41.5t-90.5 44t-120.5 17.5q-159 0 -269 -112t-110 -277z" />
<glyph unicode="r" horiz-adv-x="643" d="M166 14v791q0 14 14 14h8q15 0 15 -14v-109q40 56 108 100t158 44q44 0 82 -9t54 -19l16 -9q7 -5 7 -11q0 -4 -3 -8l-7 -10q-5 -10 -18 -4q-47 33 -131 33q-57 0 -107.5 -21.5t-83.5 -54.5t-49 -54t-26 -38v-621q0 -14 -15 -14h-8q-14 0 -14 14z" />
<glyph unicode="s" horiz-adv-x="780" d="M106 629q0 36 16.5 72t49 67.5t87.5 51.5t124 20q133 0 233 -66q11 -7 5 -16l-7 -10q-8 -11 -18 -5q-94 60 -213 60q-116 0 -177 -54t-61 -120q0 -69 57 -110t183 -77q48 -14 69.5 -20.5t62 -20.5t60 -25t46.5 -29.5t39.5 -37.5t22 -46t9.5 -58q0 -95 -87 -160t-212 -65 q-152 0 -270 92q-9 6 -6 14l10 14q6 9 18 0q104 -84 248 -84q110 0 184 54.5t74 134.5q0 34 -15 62t-37 47.5t-61 37.5t-74 29.5t-89 26.5q-143 40 -207 89t-64 132z" />
<glyph unicode="t" horiz-adv-x="645" d="M80 797v8q0 14 12 14h86v221q0 6 3.5 10.5t8.5 4.5h9q14 0 14 -15v-221h334q14 0 14 -14v-8q0 -15 -14 -15h-334v-563q0 -43 1.5 -66.5t9 -53.5t22.5 -45.5t43.5 -26.5t70.5 -11q58 0 125.5 23.5t96.5 42.5q12 9 16 -4l6 -12q1 -2 1 -5q0 -5 -5 -10q-31 -21 -102.5 -46 t-137.5 -25q-37 0 -66 6.5t-48 16.5t-32 29t-20 35.5t-11 45.5t-4.5 49.5t-0.5 56.5v563h-86q-5 0 -8.5 4.5t-3.5 10.5z" />
<glyph unicode="u" horiz-adv-x="995" d="M154 356v449q0 14 14 14h8q14 0 14 -14v-449q0 -167 78 -253.5t226 -86.5q52 0 101 16.5t80.5 37t60.5 48.5t39 41t18 25v621q0 14 14 14h8q14 0 14 -14v-791q0 -14 -14 -14h-8q-14 0 -14 14v109q-46 -56 -121.5 -99.5t-177.5 -43.5q-166 0 -253 95.5t-87 280.5z" />
<glyph unicode="v" horiz-adv-x="815" d="M33 809q-3 6 -3 9q0 5 5 7l14 6q3 1 5 1q6 0 9 -7l345 -784l344 784q4 7 9 7q2 0 5 -1l14 -6q5 -2 5 -7q0 -4 -3 -9l-362 -829q-4 -9 -12 -9t-13 9z" />
<glyph unicode="w" horiz-adv-x="1220" d="M63 811q-1 3 -1 5q0 8 8 11l12 4q11 3 14 -6l256 -770l244 795q3 10 14.5 10t14.5 -10l243 -795l256 770q3 9 15 6l12 -4q7 -3 7 -11q0 -2 -1 -5l-274 -836q-3 -11 -14.5 -11t-14.5 11l-244 793l-243 -793q-3 -11 -14.5 -11t-14.5 11z" />
<glyph unicode="x" horiz-adv-x="829" d="M76 20l315 404l-301 383q-6 9 2 14l12 8q4 2 7 2q5 0 8 -4l295 -374l297 374q4 4 8 4q3 0 6 -2l12 -8q8 -5 2 -14l-303 -383l318 -404q3 -4 3 -7q0 -4 -5 -7l-13 -8q-3 -2 -6 -2q-4 0 -8 4l-311 395l-310 -395q-4 -4 -8 -4q-3 0 -6 2l-12 8q-5 3 -5 7q0 3 3 7z" />
<glyph unicode="y" horiz-adv-x="864" d="M27 809q-3 6 -3 9q0 5 5 7l14 6q3 1 5 1q5 0 9 -7l385 -770l361 770q4 7 9 7q2 0 5 -1l14 -6q5 -2 5 -7q0 -4 -2 -9l-668 -1425q-4 -8 -10 -8q-3 0 -6 1l-11 7q-8 5 -4 16l289 616z" />
<glyph unicode="z" horiz-adv-x="772" d="M62 8q-2 4 -2 7q0 4 3 8l568 759h-498q-12 0 -12 15v8q0 14 12 14h547q9 1 14 -7q2 -3 1 -7q0 -4 -3 -8l-571 -760h536q15 0 15 -14v-9q0 -14 -15 -14h-581q-9 0 -14 8z" />
<glyph unicode="{" horiz-adv-x="681" d="M57 412v8q0 14 15 14q46 0 97.5 51t51.5 136v337q0 496 389 496q15 0 15 -14v-8q0 -6 -4.5 -10.5t-10.5 -4.5q-352 0 -352 -459v-337q0 -73 -36.5 -125.5t-86.5 -79.5q50 -27 86.5 -79.5t36.5 -125.5v-344q0 -127 26.5 -219.5t76 -145t111 -76.5t138.5 -24q15 0 15 -14 v-9q0 -14 -15 -14q-85 0 -153 26t-122.5 82.5t-84 156t-29.5 237.5v344q0 84 -50.5 135t-98.5 51q-15 0 -15 15z" />
<glyph unicode="|" horiz-adv-x="393" d="M178 -600v2140q0 14 15 14h8q14 0 14 -14v-2140q0 -14 -14 -14h-8q-15 0 -15 14z" />
<glyph unicode="}" horiz-adv-x="681" d="M57 -612q0 14 15 14q77 0 138.5 24t111 76.5t76 145t26.5 219.5v344q0 73 36.5 125.5t86.5 79.5q-50 27 -86.5 79.5t-36.5 125.5v337q0 459 -352 459q-6 0 -10.5 4.5t-4.5 10.5v8q0 14 15 14q389 0 389 -496v-337q0 -85 51.5 -136t97.5 -51q15 0 15 -14v-8q0 -15 -15 -15 q-48 0 -98.5 -51t-50.5 -135v-344q0 -138 -29.5 -237.5t-84 -156t-122.5 -82.5t-153 -26q-15 0 -15 14v9z" />
<glyph unicode="~" horiz-adv-x="1210" d="M158 535q4 8 11 21.5t32 48t54 61t76 48t97 21.5q36 0 68 -11.5t58.5 -32.5t44 -40t38.5 -45q40 -52 80.5 -83t95.5 -31q44 0 85 18.5t68 45t47.5 53t30.5 45.5l9 18q5 9 14 6l10 -4q12 -6 6 -17q-4 -8 -11 -21.5t-32 -48t-54 -61t-76 -48t-97 -21.5q-36 0 -67.5 11 t-58.5 33t-43 39.5t-38 45.5q-38 50 -80 81t-98 31q-44 0 -85 -18.5t-68 -45t-47.5 -53t-29.5 -45.5l-10 -18q-6 -11 -16 -6l-10 6q-9 6 -4 17z" />
<glyph unicode="&#xa1;" horiz-adv-x="454" d="M178 795q0 21 14 35t35 14q20 0 34.5 -14.5t14.5 -34.5t-14.5 -33.5t-34.5 -13.5q-22 0 -35.5 13.5t-13.5 33.5zM209 272q0 15 14 15h8q6 0 10.5 -4.5t4.5 -10.5v-858q0 -14 -15 -14h-8q-14 0 -14 14v858z" />
<glyph unicode="&#xa2;" horiz-adv-x="944" d="M82 414q0 183 127.5 304.5t310.5 121.5q38 0 72 -6l20 77q4 14 17 11l8 -2q14 -3 10 -19l-20 -74q58 -13 110 -38t75 -43l22 -19q8 -8 0 -16l-9 -9q-9 -8 -20 3q-8 7 -23 18t-63.5 34.5t-100.5 35.5l-204 -764q57 -13 106 -13q51 0 100.5 13.5t84.5 32t62 37.5t41 33 l13 13q9 9 17 2l10 -10q7 -7 2 -12q-5 -6 -15 -15.5t-42.5 -34.5t-68.5 -44.5t-91.5 -35t-112.5 -15.5q-58 0 -117 16l-45 -172q-3 -13 -16 -10l-8 2q-14 3 -10 18l45 172q-127 46 -207 155t-80 253zM117 414q0 -130 73.5 -231t188.5 -142l203 758q-40 4 -62 4 q-167 0 -285 -110.5t-118 -278.5z" />
<glyph unicode="&#xa3;" horiz-adv-x="1097" d="M152 651v8q0 5 4 9t10 4h82q-3 12 -15 59.5t-16 63.5t-12.5 56.5t-11.5 65t-6 60.5t-3 70q0 118 57 212.5t148.5 144.5t196.5 50q223 0 383 -147q9 -9 0 -19l-8 -8q-9 -10 -17 -2q-20 19 -36 32t-51.5 35t-71 36t-88.5 25t-111 11q-95 0 -178 -44.5t-136 -130.5t-53 -195 q0 -82 15.5 -161.5t43.5 -188.5q5 -17 7 -25h491q6 0 10.5 -4t4.5 -9v-8q0 -14 -15 -14h-483q14 -93 14 -172q0 -194 -96 -428h717q14 0 14 -14v-9q0 -14 -14 -14h-748q-8 0 -11.5 6t-0.5 14q104 251 104 445q0 73 -18 172h-88q-14 0 -14 14z" />
<glyph unicode="&#xa4;" horiz-adv-x="919" d="M129 313q-7 10 0 21l123 125q-66 78 -66 176q0 109 68 186l-125 127q-7 10 0 21l4 4q10 7 21 0l127 -127q74 65 180 65q104 0 178 -65l129 127q10 7 20 0l5 -4q7 -11 0 -21l-127 -129q69 -78 69 -180q0 -103 -65 -180l123 -125q7 -11 0 -21l-5 -4q-10 -7 -20 0l-125 123 q-76 -67 -182 -67t-182 67l-125 -123q-10 -7 -21 0zM221 637q0 -97 70 -167.5t168 -70.5q96 0 167.5 71t71.5 169q0 96 -70 167t-167 71q-98 0 -169 -71t-71 -169z" />
<glyph unicode="&#xa5;" horiz-adv-x="1241" d="M61 1409q-7 11 2 18l13 9q7 3 16 -6l529 -695l528 695q8 12 16 6l13 -9q9 -7 2 -18l-541 -704v-111h348q12 0 12 -14v-9q0 -5 -3.5 -8.5t-8.5 -3.5h-348v-207h348q12 0 12 -14v-8q0 -5 -4 -9t-8 -4h-348v-303q0 -14 -14 -14h-9q-14 0 -14 14v303h-346q-4 0 -8 4t-4 9v8 q0 6 4 10.5t8 3.5h346v207h-346q-4 0 -8 3.5t-4 8.5v9q0 6 4 10.5t8 3.5h346v108z" />
<glyph unicode="&#xa6;" horiz-adv-x="733" d="M348 141q0 5 4 9t10 4h9q6 0 10 -4t4 -9v-739q0 -14 -14 -14h-9q-14 0 -14 14v739zM348 801v739q0 14 14 14h9q14 0 14 -14v-739q0 -15 -14 -15h-9q-14 0 -14 15z" />
<glyph unicode="&#xa7;" horiz-adv-x="1107" d="M111 629q0 135 100 229q-96 90 -96 236q0 65 25.5 126.5t76 115t139.5 86t203 32.5q57 0 114 -10.5t97.5 -26t72.5 -31t48 -26.5l16 -10q9 -4 2 -15l-8 -14q-7 -13 -16 -6q-6 4 -16 11t-44 24.5t-70 31t-89.5 24.5t-106.5 11q-106 0 -188 -29t-128.5 -77t-69.5 -103 t-23 -114q0 -73 28.5 -130.5t83.5 -99.5t124 -70.5t161 -50.5q86 -22 148.5 -44t121 -53.5t95 -70t58 -92.5t21.5 -121q0 -55 -32.5 -113.5t-81.5 -107.5q110 -90 110 -245q0 -89 -59 -165.5t-157 -120.5t-208 -44q-79 0 -154 20t-129 51t-82 51t-46 36q-10 10 -2 18l12 12 q7 7 16 -2q16 -16 42.5 -35.5t76 -48.5t120.5 -48t146 -19q155 0 272 87.5t117 207.5q0 75 -29 132.5t-87.5 98t-128 67.5t-168.5 52q-77 19 -136.5 40.5t-116.5 53.5t-93.5 71.5t-59 95t-22.5 122.5zM150 629q0 -139 103.5 -221t293.5 -127q202 -52 299 -117 q45 42 75.5 95.5t30.5 102.5q0 74 -29 130.5t-87.5 97t-128 67.5t-168.5 52q-197 48 -299 127q-90 -84 -90 -207z" />
<glyph unicode="&#xa8;" horiz-adv-x="847" d="M223 1284q0 19 12 31t31 12t30 -12t11 -31q0 -18 -11.5 -29.5t-29.5 -11.5q-19 0 -31 12t-12 29zM612 1284q0 19 11 31t30 12t31 -12t12 -31q0 -17 -12 -29t-31 -12q-18 0 -29.5 11.5t-11.5 29.5z" />
<glyph unicode="&#xa9;" horiz-adv-x="1730" d="M125 717q0 150 58.5 286.5t157.5 235.5t236 157t287 58t287.5 -58t237 -157t158.5 -235.5t59 -286.5t-59 -286.5t-158.5 -235.5t-237 -157t-287.5 -58t-287 58t-236 157t-157.5 235.5t-58.5 286.5zM162 717q0 -190 94 -351.5t256 -255.5t352 -94t352.5 94t257.5 255.5 t95 351.5t-95 351.5t-257.5 255t-352.5 93.5q-143 0 -272.5 -55.5t-224 -149t-150 -223t-55.5 -272.5zM489 713q0 165 115.5 280t278.5 115q133 0 239 -80q10 -7 4 -16l-8 -11q-5 -8 -14 -2q-96 74 -221 74q-148 0 -253.5 -105t-105.5 -255q0 -148 105.5 -252.5 t253.5 -104.5q128 0 223 80q10 10 18 -4l6 -10q5 -7 -2 -14q-105 -89 -245 -89q-163 0 -278.5 115.5t-115.5 278.5z" />
<glyph unicode="&#xaa;" horiz-adv-x="688" d="M92 1028q0 87 72.5 144t189.5 57q87 0 166 -27v53q0 87 -33.5 124.5t-119.5 37.5q-50 0 -95 -10.5t-64 -21.5l-20 -11q-9 -3 -14 2l-6 13q-8 8 4 16q8 5 23.5 13.5t66 22t105.5 13.5q104 0 147 -48.5t43 -150.5v-401q0 -14 -14 -14h-8q-15 0 -15 14v51 q-41 -33 -99.5 -58.5t-119.5 -25.5q-91 0 -150 56.5t-59 150.5zM129 1028q0 -80 48 -125t124 -45q68 0 129.5 31.5t89.5 66.5v209q-97 31 -166 31q-101 0 -163 -48t-62 -120z" />
<glyph unicode="&#xab;" horiz-adv-x="798" d="M74 418q-5 8 0 16l250 348q6 10 18 4l10 -6q11 -5 4 -16l-239 -338l239 -342q7 -10 -4 -16l-10 -7q-11 -5 -18 5zM401 418q-5 8 0 16l250 348q7 10 19 4l10 -6q11 -5 4 -16l-240 -338l240 -342q7 -10 -4 -16l-10 -7q-12 -6 -19 5z" />
<glyph unicode="&#xac;" horiz-adv-x="1157" d="M166 711v8q0 14 14 14h797q14 0 14 -14v-404q0 -14 -14 -14h-8q-15 0 -15 14v381h-774q-14 0 -14 15z" />
<glyph unicode="&#xad;" horiz-adv-x="710" d="M94 512v8q0 15 12 15h498q5 0 8.5 -4.5t3.5 -10.5v-8q0 -14 -12 -14h-498q-12 0 -12 14z" />
<glyph unicode="&#xae;" horiz-adv-x="1730" d="M125 717q0 150 58.5 286.5t157.5 235.5t236 157t287 58t287.5 -58t237 -157t158.5 -235.5t59 -286.5t-59 -286.5t-158.5 -235.5t-237 -157t-287.5 -58t-287 58t-236 157t-157.5 235.5t-58.5 286.5zM162 717q0 -190 94 -351.5t256 -255.5t352 -94t352.5 94t257.5 255.5 t95 351.5t-95 351.5t-257.5 255t-352.5 93.5q-143 0 -272.5 -55.5t-224 -149t-150 -223t-55.5 -272.5zM596 354v736q0 14 12 14h307q111 0 189 -59.5t78 -174.5q0 -100 -65.5 -161t-158.5 -74l160 -275q5 -8 -4 -14l-12 -6q-9 -6 -17 6l-165 287h-5h-284v-279q0 -14 -15 -14 h-8q-12 0 -12 14zM631 668h284q91 0 160.5 53t69.5 149q0 98 -67.5 148.5t-162.5 50.5h-284v-401z" />
<glyph unicode="&#xaf;" horiz-adv-x="847" d="M115 1257v9q0 14 14 14h590q14 0 14 -14v-9q0 -14 -14 -14h-590q-14 0 -14 14z" />
<glyph unicode="&#xb0;" horiz-adv-x="747" d="M86 1165q0 120 84.5 204.5t204.5 84.5q119 0 204 -84.5t85 -204.5q0 -121 -85 -206t-204 -85q-120 0 -204.5 85t-84.5 206zM123 1165q0 -106 73 -180t179 -74q104 0 177 74t73 180q0 104 -73 178t-177 74q-105 0 -178.5 -73.5t-73.5 -178.5z" />
<glyph unicode="&#xb1;" horiz-adv-x="1294" d="M231 795v8q0 14 15 14h381v379q0 14 14 14h8q15 0 15 -14v-379h378q15 0 15 -14v-8q0 -6 -4.5 -10.5t-10.5 -4.5h-378v-319q0 -6 -4.5 -10.5t-10.5 -4.5h-8q-14 0 -14 15v319h-381q-6 0 -10.5 4.5t-4.5 10.5zM238 188v9q0 14 14 14h797q14 0 14 -14v-9q0 -14 -14 -14 h-797q-14 0 -14 14z" />
<glyph unicode="&#xb2;" horiz-adv-x="675" d="M127 1041.5q-4 9.5 4 15.5l270 225q115 96 115 191q0 61 -47.5 105t-128.5 44q-48 0 -86 -18.5t-52 -37.5l-14 -18q-7 -14 -18 -6l-10 8q-9 9 -4 17q2 4 6.5 10t21 22t36 28t52 22t68.5 10q98 0 155.5 -55t57.5 -131q0 -108 -127 -213l-229 -191h338q12 0 12 -14v-8 q0 -6 -3.5 -10.5t-8.5 -4.5h-394q-10 0 -14 9.5z" />
<glyph unicode="&#xb3;" horiz-adv-x="684" d="M129 1098q-10 10 0 20l6 6q11 10 21 0l7 -6q7 -7 9.5 -9t11 -9t14.5 -10.5t17 -9.5t20.5 -9.5t23 -8.5t27 -7t30 -4t34.5 -2q88 0 140.5 39.5t52.5 101.5q0 56 -46.5 94.5t-123.5 38.5h-133q-15 0 -15 14v9q0 14 15 14h133q65 0 108 38.5t43 94.5q0 60 -44.5 94.5 t-121.5 34.5q-34 0 -64.5 -7.5t-50.5 -18.5t-35 -22t-22 -18l-6 -8q-8 -8 -14 -2l-10 8q-11 9 -4 19q3 3 8.5 9t24.5 21t41 26t58 20.5t74 9.5q93 0 149 -44.5t56 -121.5q0 -46 -31.5 -88t-74.5 -62q56 -19 90.5 -61.5t34.5 -91.5q0 -77 -65.5 -127.5t-168.5 -50.5 q-126 0 -219 86z" />
<glyph unicode="&#xb4;" horiz-adv-x="618" d="M106 1163q-5 9 7 15l372 186q13 4 19 -6l4 -8q6 -13 -6 -19l-373 -184q-13 -5 -18 6z" />
<glyph unicode="&#xb5;" horiz-adv-x="1032" d="M168 -600v1405q0 14 14 14h8q15 0 15 -14v-449q0 -167 77.5 -253.5t225.5 -86.5q52 0 101 16.5t80.5 37t60.5 48.5t39 41t18 25v621q0 14 14 14h8q15 0 15 -14v-791q0 -14 -15 -14h-8q-14 0 -14 14v109q-46 -56 -121.5 -99.5t-177.5 -43.5q-115 0 -193 45.5t-110 134.5 v-760q0 -14 -15 -14h-8q-14 0 -14 14z" />
<glyph unicode="&#xb6;" horiz-adv-x="1370" d="M57 999q0 181 118.5 308t289.5 127h848q14 0 14 -15v-8q0 -14 -14 -14h-205v-1997q0 -14 -14 -14h-9q-14 0 -14 14v1997h-395v-1997q0 -14 -14 -14h-9q-12 0 -12 14v1997h-176q-156 0 -263.5 -116.5t-107.5 -281.5q0 -169 118 -286t282 -117q14 0 14 -14v-9 q0 -12 -14 -12q-180 0 -308.5 127.5t-128.5 310.5z" />
<glyph unicode="&#xb7;" horiz-adv-x="528" d="M215 537q0 20 14.5 33.5t34.5 13.5q22 0 35.5 -13.5t13.5 -33.5q0 -21 -14 -35.5t-35 -14.5q-20 0 -34.5 15t-14.5 35z" />
<glyph unicode="&#xb8;" horiz-adv-x="505" d="M92 -393l12 10q10 7 19 -2q52 -59 129 -59q66 0 106.5 42.5t40.5 104.5q0 73 -57.5 109t-148.5 43q-13 0 -13 12v121q0 4 4 8t9 4h12q10 0 10 -12v-99q101 -10 162 -54.5t61 -131.5q0 -75 -53 -129.5t-133 -54.5q-95 0 -160 69q-10 10 0 19z" />
<glyph unicode="&#xb9;" horiz-adv-x="370" d="M57 1524q-4 8 4 14l150 109q7 6 14.5 1t7.5 -14v-587q0 -15 -14 -15h-8q-14 0 -14 15v544l-113 -84q-10 -7 -16 2z" />
<glyph unicode="&#xba;" horiz-adv-x="690" d="M96 1130q0 151 65.5 237.5t182.5 86.5t183.5 -86.5t66.5 -237.5q0 -150 -66.5 -236.5t-183.5 -86.5q-116 0 -182 86.5t-66 236.5zM131 1130q0 -134 56.5 -210t156.5 -76q101 0 157 76t56 210q0 136 -56 212.5t-157 76.5q-100 0 -156.5 -77t-56.5 -212z" />
<glyph unicode="&#xbb;" horiz-adv-x="798" d="M115 84l239 342l-239 338q-7 10 4 16l10 6q11 6 18 -4l250 -348q5 -8 0 -16l-250 -352q-7 -10 -18 -5l-10 7q-11 6 -4 16zM442 84l240 342l-240 338q-7 10 4 16l11 6q11 6 18 -4l250 -348q5 -8 0 -16l-250 -352q-7 -10 -18 -5l-11 7q-11 6 -4 16z" />
<glyph unicode="&#xbc;" horiz-adv-x="1304" d="M113 1319q-4 8 4 14l149 109q8 6 15.5 1.5t7.5 -13.5v-588q0 -6 -4.5 -10.5t-10.5 -4.5h-8q-14 0 -14 15v544l-113 -83q-10 -7 -16 2zM135 25l854 1405q6 9 17 2l12 -7q10 -5 4 -16l-854 -1405q-7 -11 -14 -6l-17 10q-9 6 -2 17zM624.5 146.5q-3.5 7.5 2.5 15.5l415 456 q8 6 16.5 3t8.5 -13v-434h102q15 0 15 -14v-8q0 -5 -4.5 -9t-10.5 -4h-102v-125q0 -14 -14 -14h-9q-14 0 -14 14v125h-393q-9 0 -12.5 7.5zM682 174h348v379z" />
<glyph unicode="&#xbd;" horiz-adv-x="1280" d="M113 1319q-4 8 4 14l149 109q8 6 15.5 1.5t7.5 -13.5v-588q0 -6 -4.5 -10.5t-10.5 -4.5h-8q-14 0 -14 15v544l-113 -83q-10 -7 -16 2zM135 25l854 1405q6 9 17 2l12 -7q10 -5 4 -16l-854 -1405q-7 -11 -14 -6l-17 10q-9 6 -2 17zM707 9.5q-4 9.5 4 15.5l270 225 q115 96 115 190q0 61 -47.5 105.5t-128.5 44.5q-48 0 -86 -18.5t-52 -37.5l-14 -18q-7 -14 -18 -6l-11 8q-9 9 -4 17q2 4 6.5 10t21.5 22t36.5 28t52 22t68.5 10q98 0 155.5 -55.5t57.5 -131.5q0 -108 -127 -213l-230 -190h338q12 0 12 -14v-9q0 -14 -12 -14h-393 q-10 0 -14 9.5z" />
<glyph unicode="&#xbe;" horiz-adv-x="1423" d="M113 893q-10 10 0 20l6 7q10 10 20 0l7 -6q7 -7 9.5 -9t11.5 -9t14.5 -10.5t17 -10t20.5 -10t23 -8.5t27.5 -7t30 -4t34.5 -2q88 0 140 39.5t52 101.5q0 56 -46.5 94.5t-123.5 38.5h-133q-14 0 -14 15v8q0 14 14 14h133q65 0 108.5 38.5t43.5 94.5q0 60 -44.5 94.5 t-121.5 34.5q-34 0 -64.5 -7.5t-50.5 -18.5t-35 -22t-22 -19l-6 -7q-8 -8 -14 -2l-11 9q-10 8 -4 18q3 3 8.5 9t25 21t41.5 26t58 20.5t74 9.5q93 0 149 -44.5t56 -121.5q0 -45 -32 -87t-75 -62q55 -19 90 -61.5t35 -92.5q0 -77 -65 -127.5t-168 -50.5q-126 0 -219 86z M254 25l854 1405q6 9 16 2l13 -7q10 -5 4 -16l-854 -1405q-7 -11 -15 -6l-16 10q-9 6 -2 17zM743 146.5q-4 7.5 2 15.5l416 456q7 6 16 3t9 -13v-434h102q15 0 15 -14v-8q0 -5 -4.5 -9t-10.5 -4h-102v-125q0 -14 -15 -14h-8q-14 0 -14 14v125h-393q-9 0 -13 7.5zM801 174 h348v379z" />
<glyph unicode="&#xbf;" horiz-adv-x="493" d="M-119 -332q0 199 279 359q20 10 32.5 18t30 24t26.5 38.5t9 50.5v123q0 14 14 14h9q14 0 14 -14v-123q0 -15 -2.5 -28.5t-5.5 -24.5t-10 -22t-11.5 -18.5t-14.5 -17t-15 -14t-16.5 -12.5t-15 -10t-15.5 -9t-13 -8q-43 -23 -81 -49.5t-82 -67.5t-70.5 -95.5t-26.5 -113.5 q0 -114 92.5 -189t239.5 -75q68 0 129.5 17.5t100.5 42t68 49t42 41.5l12 18q8 12 16 4l11 -8q9 -9 4 -17q-5 -7 -14.5 -19.5t-44.5 -44.5t-75.5 -56t-107.5 -44t-141 -20q-162 0 -264.5 86t-102.5 215zM219 793q0 21 14 35t35 14q20 0 33.5 -14.5t13.5 -34.5t-13.5 -34 t-33.5 -14q-22 0 -35.5 13.5t-13.5 34.5z" />
<glyph unicode="&#xc0;" d="M16 14l631 1454q5 9 10 9h5q6 0 10 -9l618 -1454q3 -9 -6 -12l-18 -6q-7 -2 -11 6l-182 428h-837l-185 -428q-4 -8 -10 -6l-18 6q-10 3 -7 12zM252 465h805l-398 938zM479 1796l4 8q6 10 19 6l372 -186q11 -6 7 -14l-4 -11q-6 -11 -19 -6l-373 185q-12 6 -6 18z" />
<glyph unicode="&#xc1;" d="M16 14l631 1454q5 9 10 9h5q6 0 10 -9l618 -1454q3 -9 -6 -12l-18 -6q-7 -2 -11 6l-182 428h-837l-185 -428q-4 -8 -10 -6l-18 6q-10 3 -7 12zM252 465h805l-398 938zM471 1610q-4 9 6 14l373 186q12 4 18 -6l4 -8q6 -12 -6 -18l-372 -185q-13 -5 -19 6z" />
<glyph unicode="&#xc2;" d="M16 14l631 1454q5 9 10 9h5q6 0 10 -9l618 -1454q3 -9 -6 -12l-18 -6q-7 -2 -11 6l-182 428h-837l-185 -428q-4 -8 -10 -6l-18 6q-10 3 -7 12zM252 465h805l-398 938zM381 1575q-5 7 4 16l264 217q9 8 17 0l264 -217q9 -9 4 -16l-8 -10q-8 -8 -15 -2l-254 206l-254 -206 q-7 -5 -14 2z" />
<glyph unicode="&#xc3;" d="M16 14l631 1454q5 9 10 9h5q6 0 10 -9l618 -1454q3 -9 -6 -12l-18 -6q-7 -2 -11 6l-182 428h-837l-185 -428q-4 -8 -10 -6l-18 6q-10 3 -7 12zM252 465h805l-398 938zM356 1665q53 172 176 172q32 0 57 -11t42 -34.5t24.5 -38t18.5 -41.5q8 -19 15 -32t19.5 -29 t31.5 -24.5t42 -8.5q32 0 58.5 17t43 44.5t24.5 47t14 38.5q4 14 14 11l16 -4q12 -3 6 -19q-56 -172 -176 -172q-32 0 -58 12t-43 33.5t-26 38t-18 39.5q-8 21 -13.5 31.5t-18 29.5t-31 28t-42.5 9q-26 0 -49 -12.5t-37 -29.5t-26 -40t-17.5 -37.5t-9.5 -29.5 q-4 -14 -14 -11l-17 5q-12 3 -6 18z" />
<glyph unicode="&#xc4;" d="M16 14l631 1454q5 9 10 9h5q6 0 10 -9l618 -1454q3 -9 -6 -12l-18 -6q-7 -2 -11 6l-182 428h-837l-185 -428q-4 -8 -10 -6l-18 6q-10 3 -7 12zM252 465h805l-398 938zM403 1700q0 19 12 31t31 12t31 -12t12 -31q0 -17 -12 -29t-31 -12t-31 12t-12 29zM827 1700 q0 19 12 31t31 12t31 -12t12 -31q0 -17 -12 -29t-31 -12t-31 12t-12 29z" />
<glyph unicode="&#xc5;" d="M16 14l631 1454q5 9 10 9h5q6 0 10 -9l618 -1454q3 -9 -6 -12l-18 -6q-7 -2 -11 6l-182 428h-837l-185 -428q-4 -8 -10 -6l-18 6q-10 3 -7 12zM252 465h805l-398 938zM446 1749q0 90 61.5 151.5t151.5 61.5q89 0 151 -62t62 -151q0 -90 -61.5 -151.5t-151.5 -61.5 q-91 0 -152 61t-61 152zM481 1749q0 -74 52.5 -127t125.5 -53q72 0 125.5 53.5t53.5 126.5q0 72 -53.5 126t-125.5 54q-73 0 -125.5 -53.5t-52.5 -126.5z" />
<glyph unicode="&#xc6;" horiz-adv-x="1916" d="M-16 20l911 1397q10 17 35 17h815q14 0 14 -15v-8q0 -14 -14 -14h-811v-633h713q14 0 14 -14v-9q0 -14 -14 -14h-713v-690h811q14 0 14 -14v-9q0 -14 -14 -14h-832q-14 0 -14 14v416h-604l-281 -430q-6 -9 -16 -2l-10 6q-10 6 -4 16zM315 465h584v891z" />
<glyph unicode="&#xc7;" horiz-adv-x="1497" d="M127 715q0 152 58.5 289t158 235.5t237 156.5t289.5 58q149 0 268 -48t230 -142q8 -8 2 -17l-10 -12q-8 -9 -17 0q-105 91 -218 136.5t-255 45.5q-144 0 -275 -55t-225.5 -149t-150 -224t-55.5 -274q0 -192 94.5 -353t256.5 -253.5t355 -92.5q264 0 473 191q10 10 17 0 l10 -12q8 -7 0 -15q-209 -200 -500 -200q-5 0 -14.5 1t-13.5 1v-93q101 -10 162 -54.5t61 -131.5q0 -75 -53 -129.5t-133 -54.5q-95 0 -160 69q-9 10 0 19l12 10q10 7 19 -2q52 -59 129 -59q66 0 106.5 42.5t40.5 104.5q0 73 -57.5 109t-149.5 43q-12 0 -12 12v115 q-142 11 -267.5 73t-216.5 158.5t-143.5 227t-52.5 274.5z" />
<glyph unicode="&#xc8;" horiz-adv-x="1249" d="M229 14v1405q0 6 4.5 10.5t10.5 4.5h833q6 0 10.5 -4.5t4.5 -10.5v-8q0 -14 -15 -14h-811v-633h713q14 0 14 -14v-9q0 -14 -14 -14h-713v-690h811q15 0 15 -14v-9q0 -14 -15 -14h-833q-15 0 -15 14zM483 1796l4 8q6 10 19 6l373 -186q10 -5 6 -14l-4 -11q-6 -11 -19 -6 l-373 185q-12 6 -6 18z" />
<glyph unicode="&#xc9;" horiz-adv-x="1249" d="M229 14v1405q0 6 4.5 10.5t10.5 4.5h833q6 0 10.5 -4.5t4.5 -10.5v-8q0 -14 -15 -14h-811v-633h713q14 0 14 -14v-9q0 -14 -14 -14h-713v-690h811q15 0 15 -14v-9q0 -14 -15 -14h-833q-15 0 -15 14zM475 1610q-4 9 6 14l373 186q12 4 18 -6l5 -8q6 -12 -7 -18l-372 -185 q-13 -5 -19 6z" />
<glyph unicode="&#xca;" horiz-adv-x="1249" d="M229 14v1405q0 6 4.5 10.5t10.5 4.5h833q6 0 10.5 -4.5t4.5 -10.5v-8q0 -14 -15 -14h-811v-633h713q14 0 14 -14v-9q0 -14 -14 -14h-713v-690h811q15 0 15 -14v-9q0 -14 -15 -14h-833q-15 0 -15 14zM383 1575q-5 7 4 16l264 217q9 8 17 0l264 -217q9 -9 4 -16l-8 -10 q-8 -8 -15 -2l-254 206l-253 -206q-7 -6 -15 2z" />
<glyph unicode="&#xcb;" horiz-adv-x="1249" d="M229 14v1405q0 6 4.5 10.5t10.5 4.5h833q6 0 10.5 -4.5t4.5 -10.5v-8q0 -14 -15 -14h-811v-633h713q14 0 14 -14v-9q0 -14 -14 -14h-713v-690h811q15 0 15 -14v-9q0 -14 -15 -14h-833q-15 0 -15 14zM408 1700q0 19 12 31t31 12t31 -12t12 -31q0 -17 -12 -29t-31 -12 t-31 12t-12 29zM831 1700q0 19 12 31t31 12t31.5 -12t12.5 -31q0 -17 -12.5 -29t-31.5 -12t-31 12t-12 29z" />
<glyph unicode="&#xcc;" horiz-adv-x="495" d="M70 1796l4 8q6 10 18 6l373 -186q10 -5 6 -14l-4 -11q-5 -11 -18 -6l-373 185q-12 6 -6 18zM229 14v1405q0 6 4.5 10.5t10.5 4.5h8q14 0 14 -15v-1405q0 -14 -14 -14h-8q-15 0 -15 14z" />
<glyph unicode="&#xcd;" horiz-adv-x="495" d="M59 1610q-4 8 7 14l372 186q13 4 19 -6l4 -8q6 -12 -6 -18l-373 -185q-13 -5 -19 6zM229 14v1405q0 6 4.5 10.5t10.5 4.5h8q14 0 14 -15v-1405q0 -14 -14 -14h-8q-15 0 -15 14z" />
<glyph unicode="&#xce;" horiz-adv-x="495" d="M-29 1575q-5 7 4 16l265 217q8 8 16 0l264 -217q9 -9 4 -16l-8 -10q-7 -7 -14 -2l-254 206l-254 -206q-7 -5 -14 2zM229 14v1405q0 6 4.5 10.5t10.5 4.5h8q14 0 14 -15v-1405q0 -14 -14 -14h-8q-15 0 -15 14z" />
<glyph unicode="&#xcf;" horiz-adv-x="495" d="M-6 1700q0 19 12 31t31 12t31 -12t12 -31q0 -17 -12 -29t-31 -12t-31 12t-12 29zM229 14v1405q0 6 4.5 10.5t10.5 4.5h8q14 0 14 -15v-1405q0 -14 -14 -14h-8q-15 0 -15 14zM418 1700q0 19 12 31t31 12t31 -12t12 -31q0 -17 -12 -29t-31 -12t-31 12t-12 29z" />
<glyph unicode="&#xd0;" horiz-adv-x="1546" d="M137 711v8q0 14 15 14h81v686q0 6 4.5 10.5t10.5 4.5h450q195 0 361.5 -95.5t264 -260.5t97.5 -359q0 -118 -36.5 -228t-104 -198t-156.5 -154.5t-199 -102.5t-227 -36h-450q-15 0 -15 14v682h-81q-6 0 -10.5 4.5t-4.5 10.5zM270 37h428q186 0 343.5 90.5t250 248 t92.5 343.5q0 138 -54.5 263.5t-146.5 216.5t-219 144.5t-266 53.5h-428v-664h592q15 0 15 -14v-8q0 -6 -4.5 -10.5t-10.5 -4.5h-592v-659z" />
<glyph unicode="&#xd1;" horiz-adv-x="1581" d="M229 14v1440q0 11 10.5 14t16.5 -6l1059 -1411v1368q0 15 14 15h8q6 0 10.5 -4.5t4.5 -10.5v-1435q0 -11 -10.5 -14.5t-16.5 5.5l-1059 1411v-1372q0 -14 -14 -14h-8q-15 0 -15 14zM535 1665q53 172 176 172q26 0 48 -9t35 -20t26.5 -32t18 -31.5t13.5 -32.5 q10 -26 20.5 -43t34 -34t54.5 -17q32 0 58.5 17t42.5 44.5t24 46.5t14 39q4 14 14 11l16 -4q13 -3 7 -19q-56 -172 -176 -172q-97 0 -146 123q-9 22 -13.5 31.5t-17.5 29t-31 28.5t-42 9q-32 0 -58.5 -17.5t-43 -45t-24.5 -47t-14 -39.5q-4 -14 -14 -11l-16 5q-12 3 -6 18z " />
<glyph unicode="&#xd2;" horiz-adv-x="1732" d="M127 715q0 152 58 289t156.5 235.5t235.5 156.5t289 58t289.5 -58t236.5 -156.5t157.5 -235.5t58.5 -289t-58.5 -288.5t-157.5 -234t-236.5 -155t-289.5 -57.5t-289 57.5t-235.5 155t-156.5 234t-58 288.5zM164 715q0 -192 93.5 -353t254.5 -253.5t354 -92.5 q144 0 274.5 54.5t225 148t150 223t55.5 273.5t-55.5 274t-150 224t-225 149t-274.5 55q-192 0 -353.5 -93.5t-255 -255t-93.5 -353.5zM688 1796l4 8q6 10 19 6l372 -186q11 -6 7 -14l-5 -11q-5 -11 -18 -6l-373 185q-12 6 -6 18z" />
<glyph unicode="&#xd3;" horiz-adv-x="1732" d="M127 715q0 152 58 289t156.5 235.5t235.5 156.5t289 58t289.5 -58t236.5 -156.5t157.5 -235.5t58.5 -289t-58.5 -288.5t-157.5 -234t-236.5 -155t-289.5 -57.5t-289 57.5t-235.5 155t-156.5 234t-58 288.5zM164 715q0 -192 93.5 -353t254.5 -253.5t354 -92.5 q144 0 274.5 54.5t225 148t150 223t55.5 273.5t-55.5 274t-150 224t-225 149t-274.5 55q-192 0 -353.5 -93.5t-255 -255t-93.5 -353.5zM680 1610q-4 9 6 14l373 186q12 4 18 -6l4 -8q6 -12 -6 -18l-373 -185q-12 -5 -18 6z" />
<glyph unicode="&#xd4;" horiz-adv-x="1732" d="M127 715q0 152 58 289t156.5 235.5t235.5 156.5t289 58t289.5 -58t236.5 -156.5t157.5 -235.5t58.5 -289t-58.5 -288.5t-157.5 -234t-236.5 -155t-289.5 -57.5t-289 57.5t-235.5 155t-156.5 234t-58 288.5zM164 715q0 -192 93.5 -353t254.5 -253.5t354 -92.5 q144 0 274.5 54.5t225 148t150 223t55.5 273.5t-55.5 274t-150 224t-225 149t-274.5 55q-192 0 -353.5 -93.5t-255 -255t-93.5 -353.5zM588 1575q-5 7 4 16l264 217q8 8 16 0l265 -217q9 -9 4 -16l-8 -10q-8 -8 -15 -2l-254 206l-254 -206q-7 -5 -14 2z" />
<glyph unicode="&#xd5;" horiz-adv-x="1732" d="M127 715q0 152 58 289t156.5 235.5t235.5 156.5t289 58t289.5 -58t236.5 -156.5t157.5 -235.5t58.5 -289t-58.5 -288.5t-157.5 -234t-236.5 -155t-289.5 -57.5t-289 57.5t-235.5 155t-156.5 234t-58 288.5zM164 715q0 -192 93.5 -353t254.5 -253.5t354 -92.5 q144 0 274.5 54.5t225 148t150 223t55.5 273.5t-55.5 274t-150 224t-225 149t-274.5 55q-192 0 -353.5 -93.5t-255 -255t-93.5 -353.5zM563 1665q53 172 176 172q32 0 57 -11t42 -34.5t24.5 -38t18.5 -41.5q8 -19 15 -32t19.5 -29t31.5 -24.5t42 -8.5q32 0 58.5 17 t42.5 44.5t24 46.5t14 39q4 15 15 11l16 -4q12 -3 6 -19q-56 -172 -176 -172q-32 0 -58 12t-43 33.5t-26 38t-18 39.5q-8 21 -13.5 31.5t-18 29.5t-31 28t-42.5 9q-26 0 -49 -12.5t-37 -29.5t-26 -40t-17.5 -37.5t-9.5 -29.5q-4 -14 -14 -11l-17 5q-12 3 -6 18z" />
<glyph unicode="&#xd6;" horiz-adv-x="1732" d="M127 715q0 152 58 289t156.5 235.5t235.5 156.5t289 58t289.5 -58t236.5 -156.5t157.5 -235.5t58.5 -289t-58.5 -288.5t-157.5 -234t-236.5 -155t-289.5 -57.5t-289 57.5t-235.5 155t-156.5 234t-58 288.5zM164 715q0 -192 93.5 -353t254.5 -253.5t354 -92.5 q144 0 274.5 54.5t225 148t150 223t55.5 273.5t-55.5 274t-150 224t-225 149t-274.5 55q-192 0 -353.5 -93.5t-255 -255t-93.5 -353.5zM612 1700q0 19 12 31t31 12t31 -12t12 -31q0 -17 -12 -29t-31 -12t-31 12t-12 29zM1036 1700q0 19 12 31t31 12t31 -12t12 -31 q0 -17 -12 -29t-31 -12t-31 12t-12 29z" />
<glyph unicode="&#xd7;" horiz-adv-x="884" d="M142 433q0 6 5 9l269 271l-269 268q-7 10 0 20l7 7q10 7 20 0l268 -269l269 269q10 7 20 0l6 -7q7 -10 0 -20l-268 -268l268 -271q5 -3 5 -9t-5 -9l-6 -6q-3 -4 -9 -4t-9 4l-271 268l-270 -268q-3 -4 -9 -4t-9 4l-7 6q-5 3 -5 9z" />
<glyph unicode="&#xd8;" horiz-adv-x="1736" d="M129 715q0 152 58 289t156.5 235.5t235.5 156.5t289 58t287 -56t236 -157l139 133q7 11 18 0l6 -6q10 -10 0 -20l-139 -134q195 -218 195 -499q0 -152 -58.5 -288.5t-157.5 -234t-236.5 -155t-289.5 -57.5q-155 0 -290.5 55.5t-237.5 157.5l-135 -130q-8 -11 -19 0l-6 7 q-10 10 0 20l135 131q-88 100 -137 227t-49 267zM166 715q0 -274 176 -469l1022 971q-98 95 -225.5 147.5t-270.5 52.5q-192 0 -353.5 -93.5t-255 -255t-93.5 -353.5zM369 219q96 -98 224.5 -150.5t274.5 -52.5q144 0 274.5 54.5t225 148t150 223t55.5 273.5q0 134 -48 257 t-134 218z" />
<glyph unicode="&#xd9;" horiz-adv-x="1486" d="M211 516v903q0 15 14 15h8q6 0 10.5 -4.5t4.5 -10.5v-903q0 -224 132.5 -362t358.5 -138q228 0 362 138t134 362v903q0 15 14 15h8q6 0 10.5 -4.5t4.5 -10.5v-903q0 -239 -145 -387.5t-388 -148.5q-242 0 -385 148.5t-143 387.5zM563 1796l4 8q6 10 19 6l372 -186 q11 -6 7 -14l-4 -11q-6 -11 -19 -6l-373 185q-12 6 -6 18z" />
<glyph unicode="&#xda;" horiz-adv-x="1486" d="M211 516v903q0 15 14 15h8q6 0 10.5 -4.5t4.5 -10.5v-903q0 -224 132.5 -362t358.5 -138q228 0 362 138t134 362v903q0 15 14 15h8q6 0 10.5 -4.5t4.5 -10.5v-903q0 -239 -145 -387.5t-388 -148.5q-242 0 -385 148.5t-143 387.5zM555 1610q-4 9 6 14l373 186q12 4 18 -6 l4 -8q6 -12 -6 -18l-372 -185q-13 -5 -19 6z" />
<glyph unicode="&#xdb;" horiz-adv-x="1486" d="M211 516v903q0 15 14 15h8q6 0 10.5 -4.5t4.5 -10.5v-903q0 -224 132.5 -362t358.5 -138q228 0 362 138t134 362v903q0 15 14 15h8q6 0 10.5 -4.5t4.5 -10.5v-903q0 -239 -145 -387.5t-388 -148.5q-242 0 -385 148.5t-143 387.5zM463 1575q-5 7 4 16l264 217q9 8 17 0 l264 -217q9 -9 4 -16l-8 -10q-8 -8 -15 -2l-254 206l-254 -206q-7 -5 -14 2z" />
<glyph unicode="&#xdc;" horiz-adv-x="1486" d="M211 516v903q0 15 14 15h8q6 0 10.5 -4.5t4.5 -10.5v-903q0 -224 132.5 -362t358.5 -138q228 0 362 138t134 362v903q0 15 14 15h8q6 0 10.5 -4.5t4.5 -10.5v-903q0 -239 -145 -387.5t-388 -148.5q-242 0 -385 148.5t-143 387.5zM487 1700q0 19 12 31t31 12t31 -12 t12 -31q0 -17 -12 -29t-31 -12t-31 12t-12 29zM911 1700q0 19 12 31t31 12t31 -12t12 -31q0 -17 -12 -29t-31 -12t-31 12t-12 29z" />
<glyph unicode="&#xdd;" horiz-adv-x="1114" d="M-2 1409q-7 11 2 18l12 9q7 4 17 -6l528 -695l528 695q8 12 17 6l12 -9q9 -7 2 -18l-541 -704v-691q0 -14 -14 -14h-8q-14 0 -14 14v688zM358 1610q-4 8 7 14l372 186q13 4 19 -6l4 -8q6 -12 -6 -18l-373 -185q-13 -5 -19 6z" />
<glyph unicode="&#xde;" horiz-adv-x="1224" d="M229 14v1405q0 6 4.5 10.5t10.5 4.5h8q14 0 14 -15v-235h404q127 1 235 -61.5t171 -169t63 -230.5q0 -128 -63 -236t-170.5 -170.5t-233.5 -62.5h-406v-240q0 -14 -14 -14h-8q-15 0 -15 14zM266 289h406q177 0 303.5 127t126.5 307q0 175 -127 301t-305 125h-404v-860z " />
<glyph unicode="&#xdf;" horiz-adv-x="1165" d="M166 14v826q0 305 112.5 459.5t327.5 154.5q71 0 133 -18.5t113 -55.5t81 -100.5t30 -146.5q0 -62 -27.5 -129t-61 -113t-61 -93.5t-27.5 -74.5q0 -28 80 -94q39 -33 58 -50t53.5 -54.5t52.5 -68.5t32.5 -77t14.5 -94q0 -78 -29 -138t-79 -95.5t-111 -53.5t-129 -18 q-111 0 -203 40q-10 3 -6 15l6 12q5 11 17 6q20 -11 74 -24t112 -13q61 0 115 16t98.5 47t71 84t26.5 122q0 49 -17.5 95.5t-52.5 89t-60.5 68t-67.5 62.5q-33 29 -48 43.5t-30.5 37t-15.5 40.5q0 30 28 79.5t61 95.5t61 111.5t28 125.5q0 74 -26.5 130.5t-72.5 89 t-101.5 48.5t-119.5 16q-197 0 -300 -145.5t-103 -431.5v-826q0 -14 -15 -14h-8q-14 0 -14 14z" />
<glyph unicode="&#xe0;" horiz-adv-x="892" d="M96 256q0 123 100 202t261 79q106 0 241 -48v76q0 126 -50 182t-177 56q-69 0 -131.5 -15.5t-90.5 -31.5l-28 -15q-11 -7 -18 4l-6 11q-6 11 4 16q11 8 33 19t92 30t145 19q147 0 205.5 -65.5t58.5 -209.5v-551q0 -14 -14 -14h-8q-15 0 -15 14v92q-57 -50 -141 -88 t-176 -38q-123 0 -204 75t-81 201zM133 256q0 -111 70 -175.5t178 -64.5q101 0 189.5 46.5t127.5 95.5v295q-4 1 -25 7.5t-42 12.5t-49.5 12.5t-61 10.5t-63.5 4q-146 0 -235 -68.5t-89 -175.5zM258 1350l4 8q6 10 19 6l372 -186q11 -5 6 -15l-4 -10q-5 -11 -18 -6l-373 184 q-12 6 -6 19z" />
<glyph unicode="&#xe1;" horiz-adv-x="892" d="M96 256q0 123 100 202t261 79q106 0 241 -48v76q0 126 -50 182t-177 56q-69 0 -131.5 -15.5t-90.5 -31.5l-28 -15q-11 -7 -18 4l-6 11q-6 11 4 16q11 8 33 19t92 30t145 19q147 0 205.5 -65.5t58.5 -209.5v-551q0 -14 -14 -14h-8q-15 0 -15 14v92q-57 -50 -141 -88 t-176 -38q-123 0 -204 75t-81 201zM133 256q0 -111 70 -175.5t178 -64.5q101 0 189.5 46.5t127.5 95.5v295q-4 1 -25 7.5t-42 12.5t-49.5 12.5t-61 10.5t-63.5 4q-146 0 -235 -68.5t-89 -175.5zM254 1163q-5 10 6 15l373 186q12 4 18 -6l4 -8q6 -13 -6 -19l-373 -184 q-12 -5 -18 6z" />
<glyph unicode="&#xe2;" horiz-adv-x="892" d="M96 256q0 123 100 202t261 79q106 0 241 -48v76q0 126 -50 182t-177 56q-69 0 -131.5 -15.5t-90.5 -31.5l-28 -15q-11 -7 -18 4l-6 11q-6 11 4 16q11 8 33 19t92 30t145 19q147 0 205.5 -65.5t58.5 -209.5v-551q0 -14 -14 -14h-8q-15 0 -15 14v92q-57 -50 -141 -88 t-176 -38q-123 0 -204 75t-81 201zM133 256q0 -111 70 -175.5t178 -64.5q101 0 189.5 46.5t127.5 95.5v295q-4 1 -25 7.5t-42 12.5t-49.5 12.5t-61 10.5t-63.5 4q-146 0 -235 -68.5t-89 -175.5zM178 1135q-5 7 4 16l264 217q8 8 17 0l264 -217q9 -9 4 -16l-8 -11 q-7 -7 -14 -2l-254 207l-254 -207q-7 -6 -15 2z" />
<glyph unicode="&#xe3;" horiz-adv-x="892" d="M96 256q0 123 100 202t261 79q106 0 241 -48v76q0 126 -50 182t-177 56q-69 0 -131.5 -15.5t-90.5 -31.5l-28 -15q-11 -7 -18 4l-6 11q-6 11 4 16q11 8 33 19t92 30t145 19q147 0 205.5 -65.5t58.5 -209.5v-551q0 -14 -14 -14h-8q-15 0 -15 14v92q-57 -50 -141 -88 t-176 -38q-123 0 -204 75t-81 201zM133 256q0 -111 70 -175.5t178 -64.5q101 0 189.5 46.5t127.5 95.5v295q-4 1 -25 7.5t-42 12.5t-49.5 12.5t-61 10.5t-63.5 4q-146 0 -235 -68.5t-89 -175.5zM164 1217q53 172 176 172q26 0 48 -9t35 -20t26.5 -32t18 -31.5t13.5 -32.5 q8 -19 15 -32t20 -29.5t32 -25t42 -8.5q32 0 58.5 17t42.5 45t24 47t14 39q3 14 14 10l17 -4q12 -3 6 -18q-56 -172 -176 -172q-32 0 -58 12t-43.5 33t-26.5 38t-18 39q-8 19 -10 24.5t-12.5 24t-20 26.5t-26 16t-35.5 8q-32 0 -58.5 -17.5t-42.5 -45.5t-24 -47.5t-14 -39.5 q-3 -14 -15 -10l-16 4q-12 3 -6 19z" />
<glyph unicode="&#xe4;" horiz-adv-x="892" d="M96 256q0 123 100 202t261 79q106 0 241 -48v76q0 126 -50 182t-177 56q-69 0 -131.5 -15.5t-90.5 -31.5l-28 -15q-11 -7 -18 4l-6 11q-6 11 4 16q11 8 33 19t92 30t145 19q147 0 205.5 -65.5t58.5 -209.5v-551q0 -14 -14 -14h-8q-15 0 -15 14v92q-57 -50 -141 -88 t-176 -38q-123 0 -204 75t-81 201zM133 256q0 -111 70 -175.5t178 -64.5q101 0 189.5 46.5t127.5 95.5v295q-4 1 -25 7.5t-42 12.5t-49.5 12.5t-61 10.5t-63.5 4q-146 0 -235 -68.5t-89 -175.5zM236 1284q0 19 12 31t31 12q18 0 29 -12t11 -31q0 -18 -11 -29.5t-29 -11.5 q-19 0 -31 12t-12 29zM625 1284q0 19 11 31t30 12t31 -12t12 -31q0 -17 -12 -29t-31 -12q-18 0 -29.5 11.5t-11.5 29.5z" />
<glyph unicode="&#xe5;" horiz-adv-x="892" d="M96 256q0 123 100 202t261 79q106 0 241 -48v76q0 126 -50 182t-177 56q-69 0 -131.5 -15.5t-90.5 -31.5l-28 -15q-11 -7 -18 4l-6 11q-6 11 4 16q11 8 33 19t92 30t145 19q147 0 205.5 -65.5t58.5 -209.5v-551q0 -14 -14 -14h-8q-15 0 -15 14v92q-57 -50 -141 -88 t-176 -38q-123 0 -204 75t-81 201zM133 256q0 -111 70 -175.5t178 -64.5q101 0 189.5 46.5t127.5 95.5v295q-4 1 -25 7.5t-42 12.5t-49.5 12.5t-61 10.5t-63.5 4q-146 0 -235 -68.5t-89 -175.5zM244 1237q0 90 61.5 151.5t151.5 61.5q89 0 151 -62t62 -151 q0 -90 -61.5 -151.5t-151.5 -61.5q-91 0 -152 61t-61 152zM279 1237q0 -74 52.5 -127t125.5 -53q72 0 125 53.5t53 126.5q0 72 -53 126t-125 54q-73 0 -125.5 -53.5t-52.5 -126.5z" />
<glyph unicode="&#xe6;" horiz-adv-x="1476" d="M96 258q0 123 100 201t261 78q113 0 248 -48v76q0 125 -52.5 181.5t-179.5 56.5q-70 0 -133 -15.5t-91 -31.5l-28 -15q-13 -6 -18 4l-6 13q-3 10 4 14q11 8 33 19t92.5 30t146.5 19q197 0 246 -131q115 131 291 131q163 0 268.5 -106t105.5 -271q0 -45 -10 -62 q-4 -8 -12 -8h-621v-248q49 -57 119.5 -93t149.5 -36q88 0 162.5 27t117.5 61q10 8 15 -2l6 -12q5 -7 -2 -14q-46 -37 -125.5 -66.5t-173.5 -29.5q-168 0 -287 133q-50 -50 -144.5 -91.5t-197.5 -41.5q-123 0 -204 76t-81 202zM133 258q0 -111 70.5 -176.5t177.5 -65.5 q101 0 193.5 42.5t130.5 88.5v306q-2 1 -25 8t-44 12.5t-51 12t-63.5 10.5t-64.5 4q-146 0 -235 -67.5t-89 -174.5zM731 664q10 -48 10 -99v-135h605q2 12 2 33q0 150 -95 245t-243 95q-91 0 -162.5 -36.5t-116.5 -102.5z" />
<glyph unicode="&#xe7;" horiz-adv-x="980" d="M106 414q0 183 128 304.5t311 121.5q55 0 107 -11.5t88 -28t63.5 -33.5t40.5 -29l14 -11q8 -8 0 -16l-8 -9q-9 -9 -21 3q-4 4 -12 10.5t-36 23.5t-58.5 30t-79 23.5t-98.5 10.5q-167 0 -285.5 -111t-118.5 -278q0 -112 56.5 -204.5t149 -143t198.5 -50.5q51 0 100.5 13.5 t84.5 32t62 37.5t40 33l14 13q9 9 16 2l10 -10q7 -7 2 -12q-5 -6 -15 -15.5t-42.5 -34.5t-68 -44.5t-91 -35t-112.5 -15.5q-21 0 -29 2v-93q101 -10 162 -54.5t61 -131.5q0 -75 -53 -129.5t-133 -54.5q-95 0 -160 69q-9 10 0 19l13 10q10 6 18 -2q52 -59 129 -59 q66 0 106.5 42.5t40.5 104.5q0 73 -57.5 109t-148.5 43q-13 0 -13 12v117q-159 22 -267 142t-108 288z" />
<glyph unicode="&#xe8;" horiz-adv-x="976" d="M106 414q0 183 110.5 304.5t293.5 121.5q163 0 268 -105t105 -270q0 -47 -9 -62q-4 -8 -12 -8h-717q5 -164 103.5 -271.5t261.5 -107.5q88 0 162.5 27t115.5 61q12 9 17 -2l8 -12q4 -6 -4 -14q-48 -37 -127.5 -66.5t-171.5 -29.5q-183 0 -293.5 124t-110.5 310zM145 430 h699q2 12 2 35q0 150 -95 244t-241 94q-163 0 -261 -105.5t-104 -267.5zM305 1350l4 8q6 10 19 6l372 -186q12 -6 7 -15l-5 -10q-6 -11 -18 -6l-373 184q-12 6 -6 19z" />
<glyph unicode="&#xe9;" horiz-adv-x="976" d="M106 414q0 183 110.5 304.5t293.5 121.5q163 0 268 -105t105 -270q0 -47 -9 -62q-4 -8 -12 -8h-717q5 -164 103.5 -271.5t261.5 -107.5q88 0 162.5 27t115.5 61q12 9 17 -2l8 -12q4 -6 -4 -14q-48 -37 -127.5 -66.5t-171.5 -29.5q-183 0 -293.5 124t-110.5 310zM145 430 h699q2 12 2 35q0 150 -95 244t-241 94q-163 0 -261 -105.5t-104 -267.5zM301 1163q-5 10 6 15l373 186q12 4 18 -6l4 -8q6 -13 -6 -19l-372 -184q-13 -5 -19 6z" />
<glyph unicode="&#xea;" horiz-adv-x="976" d="M106 414q0 183 110.5 304.5t293.5 121.5q163 0 268 -105t105 -270q0 -47 -9 -62q-4 -8 -12 -8h-717q5 -164 103.5 -271.5t261.5 -107.5q88 0 162.5 27t115.5 61q12 9 17 -2l8 -12q4 -6 -4 -14q-48 -37 -127.5 -66.5t-171.5 -29.5q-183 0 -293.5 124t-110.5 310zM145 430 h699q2 12 2 35q0 150 -95 244t-241 94q-163 0 -261 -105.5t-104 -267.5zM225 1135q-5 7 4 16l265 217q8 8 16 0l264 -217q9 -9 4 -16l-8 -11q-7 -7 -14 -2l-254 207l-254 -207q-7 -6 -15 2z" />
<glyph unicode="&#xeb;" horiz-adv-x="976" d="M106 414q0 183 110.5 304.5t293.5 121.5q163 0 268 -105t105 -270q0 -47 -9 -62q-4 -8 -12 -8h-717q5 -164 103.5 -271.5t261.5 -107.5q88 0 162.5 27t115.5 61q12 9 17 -2l8 -12q4 -6 -4 -14q-48 -37 -127.5 -66.5t-171.5 -29.5q-183 0 -293.5 124t-110.5 310zM145 430 h699q2 12 2 35q0 150 -95 244t-241 94q-163 0 -261 -105.5t-104 -267.5zM303 1284q0 19 12 31t31 12t30 -12t11 -31q0 -18 -11.5 -29.5t-29.5 -11.5q-19 0 -31 12t-12 29zM692 1284q0 19 11 31t30 12t31 -12t12 -31q0 -17 -12 -29t-31 -12q-18 0 -29.5 11.5t-11.5 29.5z" />
<glyph unicode="&#xec;" horiz-adv-x="368" d="M-14 1350l4 8q6 10 18 6l373 -186q11 -5 6 -15l-4 -10q-5 -11 -18 -6l-373 184q-12 6 -6 19zM166 14v791q0 14 14 14h8q15 0 15 -14v-791q0 -14 -15 -14h-8q-14 0 -14 14z" />
<glyph unicode="&#xed;" horiz-adv-x="368" d="M-18 1163q-5 10 6 15l372 186q13 4 19 -6l4 -8q6 -13 -6 -19l-373 -184q-13 -5 -18 6zM166 14v791q0 14 14 14h8q15 0 15 -14v-791q0 -14 -15 -14h-8q-14 0 -14 14z" />
<glyph unicode="&#xee;" horiz-adv-x="368" d="M-92 1135q-5 7 4 16l264 217q8 8 17 0l264 -217q9 -9 4 -16l-8 -11q-8 -8 -15 -2l-254 207l-254 -207q-7 -5 -14 2zM166 14v791q0 14 14 14h8q15 0 15 -14v-791q0 -14 -15 -14h-8q-14 0 -14 14z" />
<glyph unicode="&#xef;" horiz-adv-x="368" d="M-51 1284q0 19 12 31t31 12t30 -12t11 -31q0 -18 -11.5 -29.5t-29.5 -11.5q-19 0 -31 12t-12 29zM166 14v791q0 14 14 14h8q15 0 15 -14v-791q0 -14 -15 -14h-8q-14 0 -14 14zM338 1284q0 19 11 31t30 12t31 -12t12 -31q0 -17 -12 -29t-31 -12q-18 0 -29.5 11.5 t-11.5 29.5z" />
<glyph unicode="&#xf0;" horiz-adv-x="1155" d="M100 455q0 134 63.5 238.5t165 159t220.5 54.5q271 0 452 -241q-39 323 -319 557l-274 -158q-12 -8 -19 6l-4 6q-8 12 6 19l260 149q-131 101 -289 162q-11 5 -8 16l4 15q4 10 17 6q162 -59 311 -178l139 80q11 7 19 -5l4 -6q7 -14 -6 -20l-127 -74q67 -57 122.5 -122.5 t103.5 -149t74.5 -187t26.5 -217.5q0 -165 -55.5 -296.5t-166.5 -210t-259 -78.5q-92 0 -177 37.5t-147.5 100.5t-99.5 151.5t-37 185.5zM135 455q0 -182 126 -310.5t300 -128.5q139 0 241.5 73t154 196.5t51.5 279.5v29q-38 57 -58 81q-150 177 -361 194q-20 1 -40 1 q-110 0 -203.5 -49.5t-152 -145.5t-58.5 -220z" />
<glyph unicode="&#xf1;" horiz-adv-x="1013" d="M166 14v791q0 14 14 14h8q15 0 15 -14v-113q137 148 319 148q166 0 253 -97.5t87 -283.5v-445q0 -14 -14 -14h-8q-15 0 -15 14v445q0 167 -77.5 255.5t-225.5 88.5q-63 0 -123 -22t-100.5 -54.5t-63 -54.5t-32.5 -37v-621q0 -14 -15 -14h-8q-14 0 -14 14zM197 1219 q53 172 176 172q26 0 48 -9t35 -20t26.5 -32t18 -31.5t13.5 -32.5q8 -19 15 -32t20 -29.5t32 -25t42 -8.5q32 0 58.5 17t42.5 45t24 47t14 39q3 14 14 10l17 -4q12 -3 6 -18q-56 -172 -176 -172q-32 0 -58 12t-43.5 33t-26.5 38t-18 39q-8 19 -10 24.5t-12.5 24t-20 26.5 t-26 16t-35.5 8q-32 0 -58.5 -17.5t-43 -45.5t-24.5 -47.5t-14 -39.5q-3 -14 -14 -10l-16 4q-12 3 -6 19z" />
<glyph unicode="&#xf2;" horiz-adv-x="1040" d="M104 412q0 179 121 303.5t295 124.5t295 -124.5t121 -303.5q0 -181 -120.5 -306.5t-295.5 -125.5t-295.5 125.5t-120.5 306.5zM141 412q0 -166 110 -281t269 -115t269 115t110 281q0 163 -110 277t-269 114t-269 -114t-110 -277zM322 1350l4 8q6 10 18 6l373 -186 q11 -5 6 -15l-4 -10q-6 -11 -19 -6l-372 184q-12 6 -6 19z" />
<glyph unicode="&#xf3;" horiz-adv-x="1040" d="M104 412q0 179 121 303.5t295 124.5t295 -124.5t121 -303.5q0 -181 -120.5 -306.5t-295.5 -125.5t-295.5 125.5t-120.5 306.5zM141 412q0 -166 110 -281t269 -115t269 115t110 281q0 163 -110 277t-269 114t-269 -114t-110 -277zM317 1163q-5 9 7 15l372 186q13 4 19 -6 l4 -8q6 -13 -6 -19l-373 -184q-12 -5 -18 6z" />
<glyph unicode="&#xf4;" horiz-adv-x="1040" d="M104 412q0 179 121 303.5t295 124.5t295 -124.5t121 -303.5q0 -181 -120.5 -306.5t-295.5 -125.5t-295.5 125.5t-120.5 306.5zM141 412q0 -166 110 -281t269 -115t269 115t110 281q0 163 -110 277t-269 114t-269 -114t-110 -277zM242 1135q-5 7 4 16l264 217q8 8 16 0 l265 -217q9 -9 4 -16l-9 -11q-7 -7 -14 -2l-254 207l-254 -207q-7 -5 -14 2z" />
<glyph unicode="&#xf5;" horiz-adv-x="1040" d="M104 412q0 179 121 303.5t295 124.5t295 -124.5t121 -303.5q0 -181 -120.5 -306.5t-295.5 -125.5t-295.5 125.5t-120.5 306.5zM141 412q0 -166 110 -281t269 -115t269 115t110 281q0 163 -110 277t-269 114t-269 -114t-110 -277zM219 1217q53 172 176 172q32 0 57 -11 t42 -34.5t24.5 -38t18.5 -41.5q8 -19 15 -32t19.5 -29.5t31.5 -25t42 -8.5q32 0 58.5 17t42.5 45t24 47t14 39q3 14 15 10l16 -4q12 -3 6 -18q-56 -172 -176 -172q-32 0 -58 12t-43 33.5t-26 37.5t-18 39q-7 18 -10 25t-13 24.5t-20 25.5t-26.5 16t-35.5 8 q-32 0 -58.5 -17.5t-42.5 -45.5t-24 -47.5t-14 -39.5q-3 -14 -14 -10l-17 4q-12 3 -6 19z" />
<glyph unicode="&#xf6;" horiz-adv-x="1040" d="M104 412q0 179 121 303.5t295 124.5t295 -124.5t121 -303.5q0 -181 -120.5 -306.5t-295.5 -125.5t-295.5 125.5t-120.5 306.5zM141 412q0 -166 110 -281t269 -115t269 115t110 281q0 163 -110 277t-269 114t-269 -114t-110 -277zM281 1284q0 19 12 31t31 12t30 -12 t11 -31q0 -18 -11.5 -29.5t-29.5 -11.5q-19 0 -31 12t-12 29zM670 1284q0 19 11 31t30 12t31 -12t12 -31q0 -17 -12 -29t-31 -12q-18 0 -29.5 11.5t-11.5 29.5z" />
<glyph unicode="&#xf7;" horiz-adv-x="1460" d="M315 711v8q0 14 15 14h796q15 0 15 -14v-8q0 -6 -4.5 -10.5t-10.5 -4.5h-796q-6 0 -10.5 4.5t-4.5 10.5zM672 428q0 20 14.5 33.5t34.5 13.5q22 0 35.5 -13.5t13.5 -33.5q0 -21 -14 -35t-35 -14q-20 0 -34.5 14.5t-14.5 34.5zM672 1001q0 20 14.5 34t34.5 14 q21 0 35 -13.5t14 -34.5t-14 -35t-35 -14q-20 0 -34.5 14.5t-14.5 34.5z" />
<glyph unicode="&#xf8;" horiz-adv-x="1044" d="M106 406q0 179 121 306.5t295 127.5q181 0 303 -135l54 47q7 7 18 0l6 -7q10 -10 0 -20l-53 -49q88 -122 88 -270q0 -181 -120.5 -303.5t-295.5 -122.5q-91 0 -171 36.5t-138 102.5l-41 -39q-9 -9 -20 2l-5 6q-11 10 0 21l41 41q-82 114 -82 256zM143 406q0 -128 76 -232 l576 504q-109 125 -273 125q-159 0 -269 -116.5t-110 -280.5zM244 145q110 -129 278 -129q160 0 269.5 112.5t109.5 277.5q0 135 -80 245z" />
<glyph unicode="&#xf9;" horiz-adv-x="995" d="M154 356v449q0 14 14 14h8q14 0 14 -14v-449q0 -167 78 -253.5t226 -86.5q52 0 101 16.5t80.5 37t60.5 48.5t39 41t18 25v621q0 14 14 14h8q14 0 14 -14v-791q0 -14 -14 -14h-8q-14 0 -14 14v109q-46 -56 -121.5 -99.5t-177.5 -43.5q-166 0 -253 95.5t-87 280.5z M299 1350l4 8q6 10 19 6l372 -186q11 -5 6 -15l-4 -10q-6 -11 -18 -6l-373 184q-12 6 -6 19z" />
<glyph unicode="&#xfa;" horiz-adv-x="995" d="M154 356v449q0 14 14 14h8q14 0 14 -14v-449q0 -167 78 -253.5t226 -86.5q52 0 101 16.5t80.5 37t60.5 48.5t39 41t18 25v621q0 14 14 14h8q14 0 14 -14v-791q0 -14 -14 -14h-8q-14 0 -14 14v109q-46 -56 -121.5 -99.5t-177.5 -43.5q-166 0 -253 95.5t-87 280.5z M295 1163q-5 10 6 15l373 186q12 4 18 -6l4 -8q6 -13 -6 -19l-373 -184q-13 -5 -18 6z" />
<glyph unicode="&#xfb;" horiz-adv-x="995" d="M154 356v449q0 14 14 14h8q14 0 14 -14v-449q0 -167 78 -253.5t226 -86.5q52 0 101 16.5t80.5 37t60.5 48.5t39 41t18 25v621q0 14 14 14h8q14 0 14 -14v-791q0 -14 -14 -14h-8q-14 0 -14 14v109q-46 -56 -121.5 -99.5t-177.5 -43.5q-166 0 -253 95.5t-87 280.5z M219 1135q-5 7 4 16l264 217q9 8 17 0l264 -217q9 -9 4 -16l-8 -11q-7 -7 -14 -2l-254 207l-254 -207q-7 -6 -15 2z" />
<glyph unicode="&#xfc;" horiz-adv-x="995" d="M154 356v449q0 14 14 14h8q14 0 14 -14v-449q0 -167 78 -253.5t226 -86.5q52 0 101 16.5t80.5 37t60.5 48.5t39 41t18 25v621q0 14 14 14h8q14 0 14 -14v-791q0 -14 -14 -14h-8q-14 0 -14 14v109q-46 -56 -121.5 -99.5t-177.5 -43.5q-166 0 -253 95.5t-87 280.5z M266 1284q0 19 12 31t31 12t30 -12t11 -31q0 -18 -11.5 -29.5t-29.5 -11.5q-19 0 -31 12t-12 29zM655 1284q0 19 11 31t30 12t31 -12t12 -31q0 -17 -12 -29t-31 -12q-18 0 -29.5 11.5t-11.5 29.5z" />
<glyph unicode="&#xfd;" horiz-adv-x="864" d="M27 809q-7 13 2 16l14 6q9 4 14 -6l385 -770l361 770q5 10 14 6l14 -6q9 -3 3 -16l-668 -1425q-6 -12 -16 -7l-11 7q-8 5 -4 16l289 616zM240 1163q-5 10 6 15l372 186q13 4 19 -6l4 -8q6 -13 -6 -19l-373 -184q-12 -5 -18 6z" />
<glyph unicode="&#xfe;" horiz-adv-x="1005" d="M166 -600v2019q0 6 3.5 10.5t8.5 4.5h8q6 0 10.5 -4.5t4.5 -10.5v-694q126 115 299 115q172 0 285.5 -124.5t113.5 -307.5q0 -187 -119.5 -307.5t-312.5 -120.5q-152 0 -266 104v-684q0 -14 -15 -14h-8q-12 0 -12 14zM201 139q5 -8 15 -18.5t34.5 -30.5t53 -35t72.5 -27 t91 -12q178 0 287.5 110.5t109.5 281.5q0 167 -103.5 281t-260.5 114q-64 0 -122 -17.5t-94 -43t-56 -43.5t-27 -29v-531z" />
<glyph unicode="&#xff;" horiz-adv-x="864" d="M27 809q-7 13 2 16l14 6q9 4 14 -6l385 -770l361 770q5 10 14 6l14 -6q9 -3 3 -16l-668 -1425q-6 -12 -16 -7l-11 7q-8 5 -4 16l289 616zM205 1284q0 19 12 31t31 12t30 -12t11 -31q0 -18 -11.5 -29.5t-29.5 -11.5q-19 0 -31 12t-12 29zM594 1284q0 19 11 31t30 12 t31 -12t12 -31q0 -17 -12 -29t-31 -12q-18 0 -29.5 11.5t-11.5 29.5z" />
<glyph unicode="&#x152;" horiz-adv-x="2031" d="M127 715q0 152 57.5 289t156 235.5t235 156.5t288.5 58q78 0 170 -20h828q12 0 12 -15v-8q0 -14 -12 -14h-811v-633h712q5 0 9 -4t4 -10v-9q0 -6 -4 -10t-9 -4h-712v-690h811q12 0 12 -14v-9q0 -14 -12 -14h-824q-92 -20 -176 -20q-152 0 -288.5 57.5t-234 155t-155 234 t-57.5 288.5zM162 715q0 -192 93 -353t253.5 -253.5t353.5 -92.5q80 0 152 17v1368q-82 16 -150 16q-192 0 -353.5 -93.5t-255 -255t-93.5 -353.5z" />
<glyph unicode="&#x153;" horiz-adv-x="1632" d="M104 410q0 179 121 304.5t295 125.5q95 0 179 -45t143 -121q53 77 136 121.5t187 44.5q162 0 267.5 -110.5t105.5 -276.5q0 -49 -8 -62q-4 -8 -12 -8h-656v-201q48 -77 126 -121.5t177 -44.5q86 0 161 27t118 61q8 8 16 -4l6 -8q6 -8 -2 -16q-48 -37 -127.5 -66.5 t-171.5 -29.5q-104 0 -187 43.5t-136 119.5q-58 -77 -141 -120t-181 -43q-175 0 -295.5 124.5t-120.5 305.5zM141 410q0 -166 109.5 -280t269.5 -114q87 0 169 47.5t136 120.5v449q-54 73 -137 121.5t-168 48.5q-159 0 -269 -115t-110 -278zM862 420h637q2 12 2 33 q0 151 -94.5 250.5t-241.5 99.5q-99 0 -177 -46.5t-126 -123.5v-213z" />
<glyph unicode="&#x178;" horiz-adv-x="1114" d="M-2 1409q-7 11 2 18l12 9q7 4 17 -6l528 -695l528 695q8 12 17 6l12 -9q9 -7 2 -18l-541 -704v-691q0 -14 -14 -14h-8q-14 0 -14 14v688zM305 1700q0 19 12 31t31 12t31 -12t12 -31q0 -17 -12 -29t-31 -12t-31 12t-12 29zM729 1700q0 19 12 31t31 12t31 -12t12 -31 q0 -17 -12 -29t-31 -12t-31 12t-12 29z" />
<glyph unicode="&#x2c6;" horiz-adv-x="763" d="M104 1135q-4 7 5 16l264 217q8 8 16 0l264 -217q9 -9 4 -16l-8 -11q-7 -7 -14 -2l-254 207l-254 -207q-7 -5 -14 2z" />
<glyph unicode="&#x2dc;" horiz-adv-x="778" d="M68 1217q53 172 176 172q26 0 48 -9t35 -20t26.5 -32t18 -31.5t13.5 -32.5q8 -19 15 -32t20 -29.5t32 -25t42 -8.5q32 0 58.5 17t42.5 45t24 47t14 39q3 14 14 10l17 -4q12 -3 6 -18q-56 -172 -176 -172q-32 0 -58 12t-43.5 33t-26.5 38t-18 39q-8 19 -10 24.5t-12.5 24 t-20 26.5t-26 16t-35.5 8q-32 0 -58.5 -17.5t-43 -45.5t-24.5 -47.5t-14 -39.5q-3 -14 -14 -10l-16 4q-12 3 -6 19z" />
<glyph unicode="&#x2000;" horiz-adv-x="981" />
<glyph unicode="&#x2001;" horiz-adv-x="1962" />
<glyph unicode="&#x2002;" horiz-adv-x="981" />
<glyph unicode="&#x2003;" horiz-adv-x="1962" />
<glyph unicode="&#x2004;" horiz-adv-x="654" />
<glyph unicode="&#x2005;" horiz-adv-x="490" />
<glyph unicode="&#x2006;" horiz-adv-x="327" />
<glyph unicode="&#x2007;" horiz-adv-x="327" />
<glyph unicode="&#x2008;" horiz-adv-x="245" />
<glyph unicode="&#x2009;" horiz-adv-x="392" />
<glyph unicode="&#x200a;" horiz-adv-x="109" />
<glyph unicode="&#x2010;" horiz-adv-x="1222" d="M350 512v8q0 15 12 15h498q5 0 8.5 -4.5t3.5 -10.5v-8q0 -14 -12 -14h-498q-12 0 -12 14z" />
<glyph unicode="&#x2011;" horiz-adv-x="1222" d="M350 512v8q0 15 12 15h498q5 0 8.5 -4.5t3.5 -10.5v-8q0 -14 -12 -14h-498q-12 0 -12 14z" />
<glyph unicode="&#x2012;" horiz-adv-x="1222" d="M350 512v8q0 15 12 15h498q5 0 8.5 -4.5t3.5 -10.5v-8q0 -14 -12 -14h-498q-12 0 -12 14z" />
<glyph unicode="&#x2013;" horiz-adv-x="1513" d="M334 512v8q0 15 14 15h817q6 0 10.5 -4.5t4.5 -10.5v-8q0 -14 -15 -14h-817q-14 0 -14 14z" />
<glyph unicode="&#x2014;" horiz-adv-x="1955" d="M334 512v8q0 15 14 15h1260q14 0 14 -15v-8q0 -14 -14 -14h-1260q-14 0 -14 14z" />
<glyph unicode="&#x2018;" horiz-adv-x="356" d="M96 1245q0 39 13 74.5t32 58t37.5 39.5t31.5 24l13 7q14 7 19 -2l6 -12q7 -14 -6 -19q-4 -2 -11.5 -6t-26 -19.5t-32.5 -33.5t-25.5 -48t-11.5 -63q0 -72 27 -117q21 21 41 21t33.5 -14t13.5 -33t-13.5 -32t-33.5 -13q-39 0 -73 47.5t-34 140.5z" />
<glyph unicode="&#x2019;" horiz-adv-x="354" d="M113 1409q0 19 13.5 32t33.5 13q39 0 72.5 -47.5t33.5 -140.5q0 -39 -13 -74.5t-32 -58t-37.5 -39.5t-31.5 -24l-13 -7q-14 -7 -18 2l-6 12q-7 14 6 19q4 2 11.5 6t25.5 19.5t32 33.5t25.5 48t11.5 63q0 73 -26 116q-20 -20 -41 -20q-20 0 -33.5 14t-13.5 33z" />
<glyph unicode="&#x201a;" horiz-adv-x="536" d="M211 27q0 19 13.5 32t33.5 13q39 0 73 -48t34 -141q0 -39 -13 -74.5t-31.5 -58t-37.5 -39t-32 -23.5l-13 -7q-14 -7 -19 2l-6 12q-6 13 6 18q4 2 11.5 6t26 19.5t32.5 33.5t25.5 48t11.5 63q0 72 -27 117q-20 -20 -41 -20q-20 0 -33.5 14t-13.5 33z" />
<glyph unicode="&#x201c;" horiz-adv-x="720" d="M96 1245q0 39 13 74.5t32 58t37.5 39.5t31.5 24l13 7q14 7 19 -2l6 -12q7 -14 -6 -19q-4 -2 -11.5 -6t-26 -19.5t-32.5 -33.5t-25.5 -48t-11.5 -63q0 -72 27 -117q21 21 41 21t33.5 -14t13.5 -33t-13.5 -32t-33.5 -13q-39 0 -73 47.5t-34 140.5zM461 1245q0 39 13 74.5 t31.5 58t37.5 39.5t32 24l13 7q14 7 18 -2l6 -12q7 -14 -6 -19q-4 -2 -11.5 -6t-25.5 -19.5t-32 -33.5t-25.5 -48t-11.5 -63q0 -74 26 -117q21 21 41 21t33.5 -14t13.5 -33t-13.5 -32t-33.5 -13q-39 0 -72.5 47.5t-33.5 140.5z" />
<glyph unicode="&#x201d;" horiz-adv-x="718" d="M113 1409q0 19 13.5 32t33.5 13q39 0 72.5 -47.5t33.5 -140.5q0 -39 -13 -74.5t-32 -58t-37.5 -39.5t-31.5 -24l-13 -7q-14 -7 -18 2l-6 12q-7 14 6 19q4 2 11.5 6t25.5 19.5t32 33.5t25.5 48t11.5 63q0 73 -26 116q-20 -20 -41 -20q-20 0 -33.5 14t-13.5 33zM477 1409 q0 19 13.5 32t33.5 13q39 0 73 -47.5t34 -140.5q0 -39 -13 -74.5t-31.5 -58t-37.5 -39.5t-32 -24l-13 -7q-14 -7 -19 2l-6 12q-7 14 6 19q4 2 11.5 6t26 19.5t32.5 33.5t25.5 48t11.5 63q0 71 -27 116q-20 -20 -41 -20q-20 0 -33.5 14t-13.5 33z" />
<glyph unicode="&#x201e;" horiz-adv-x="901" d="M211 27q0 19 13.5 32t33.5 13q39 0 73 -48t34 -141q0 -39 -13 -74.5t-31.5 -58t-37.5 -39t-32 -23.5l-13 -7q-14 -7 -19 2l-6 12q-6 13 6 18q4 2 11.5 6t26 19.5t32.5 33.5t25.5 48t11.5 63q0 72 -27 117q-20 -20 -41 -20q-20 0 -33.5 14t-13.5 33zM575 27q0 19 14 32 t34 13q39 0 72.5 -48t33.5 -141q0 -39 -13 -74.5t-31.5 -58t-37.5 -39t-32 -23.5l-13 -7q-14 -7 -18 2l-6 12q-6 13 6 18q4 2 11.5 6t25.5 19.5t32 33.5t25.5 48t11.5 63q0 74 -26 117q-20 -20 -41 -20q-20 0 -34 14t-14 33z" />
<glyph unicode="&#x2022;" horiz-adv-x="724" d="M285 463q0 34 21.5 57t53.5 23q34 0 57 -23t23 -57q0 -31 -23.5 -53.5t-56.5 -22.5q-32 0 -53.5 22.5t-21.5 53.5z" />
<glyph unicode="&#x2026;" horiz-adv-x="1277" d="M199 43q0 20 14.5 33.5t34.5 13.5q21 0 34 -13t13 -34t-13 -35t-34 -14q-20 0 -34.5 14.5t-14.5 34.5zM588 43q0 20 13.5 33.5t33.5 13.5q22 0 35.5 -13.5t13.5 -33.5q0 -21 -14 -35t-35 -14q-20 0 -33.5 14.5t-13.5 34.5zM983 43q0 20 13.5 33.5t33.5 13.5 q22 0 35.5 -13.5t13.5 -33.5q0 -21 -14 -35t-35 -14q-20 0 -33.5 14.5t-13.5 34.5z" />
<glyph unicode="&#x202f;" horiz-adv-x="392" />
<glyph unicode="&#x2039;" horiz-adv-x="471" d="M74 418q-5 8 0 16l250 348q6 10 18 4l10 -6q11 -5 4 -16l-239 -338l239 -342q7 -10 -4 -16l-10 -7q-11 -5 -18 5z" />
<glyph unicode="&#x203a;" horiz-adv-x="471" d="M115 84l239 342l-239 338q-7 10 4 16l10 6q11 6 18 -4l250 -348q5 -8 0 -16l-250 -352q-7 -10 -18 -5l-10 7q-11 6 -4 16z" />
<glyph unicode="&#x205f;" horiz-adv-x="490" />
<glyph unicode="&#x20ac;" horiz-adv-x="1521" d="M41 555v8q0 6 4 11t8 4h111q-12 64 -12 137q0 44 2 67h-101q-5 0 -8.5 4.5t-3.5 10.5v8q0 14 12 14h105q25 178 128 323t263.5 228.5t345.5 83.5q149 0 268 -48t230 -142q8 -8 2 -17l-11 -12q-8 -8 -16 0q-105 91 -218 136.5t-255 45.5q-175 0 -326.5 -78t-249.5 -215 t-122 -305h749q15 0 15 -14v-8q0 -6 -4.5 -10.5t-10.5 -4.5h-756q-2 -23 -2 -67q0 -67 13 -137h665q5 0 9 -4.5t4 -10.5v-8q0 -4 -4 -8t-9 -4h-657q59 -232 249 -379.5t437 -147.5q264 0 473 191q10 10 16 0l11 -12q7 -7 0 -15q-209 -200 -500 -200q-262 0 -463 158.5 t-260 404.5h-119q-5 0 -8.5 3.5t-3.5 8.5z" />
<glyph unicode="&#x2122;" horiz-adv-x="1476" d="M-2 1411v8q0 15 14 15h459q14 0 14 -15v-8q0 -14 -14 -14h-209v-586q0 -14 -14 -14h-8q-15 0 -15 14v586h-213q-14 0 -14 14zM584 813l170 633q3 10 13.5 10t12.5 -10l189 -576l186 576q3 10 14.5 10t14.5 -10l168 -633q3 -14 -9 -16l-16 -4q-8 -3 -12 8l-148 553 l-184 -570q-3 -10 -14.5 -10t-14.5 10l-184 570l-149 -553q-2 -12 -17 -8l-12 4q-11 4 -8 16z" />
<glyph unicode="&#x25fc;" horiz-adv-x="829" d="M0 0v829h829v-829h-829z" />
<glyph unicode="&#xfb03;" horiz-adv-x="1579" d="M66 797v8q0 14 14 14h123v234q0 97 26.5 171.5t73 119.5t105 67.5t127.5 22.5q161 0 284 -117q47 66 117 101.5t151 35.5q106 0 181 -40t114 -83q6 -6 -2 -14l-12 -12q-7 -7 -14 0q-114 114 -267 114q-124 0 -213.5 -92t-89.5 -250v-258h615q14 0 14 -14v-791 q0 -14 -14 -14h-8q-15 0 -15 14v768h-592v-768q0 -14 -14 -14h-6q-14 0 -14 14v768h-510v-768q0 -14 -15 -14h-8q-14 0 -14 14v768h-123q-14 0 -14 15zM240 819h510v258q0 117 49 207q-35 39 -107 76t-157 37q-128 0 -211.5 -86t-83.5 -258v-234z" />
<glyph unicode="&#xfb04;" horiz-adv-x="1591" d="M66 797v8q0 14 14 14h123v234q0 191 92.5 286t245.5 95q143 0 268 -113q46 66 118 99.5t158 33.5q99 0 177 -35t127 -80v80q0 15 14 15h8q14 0 14 -15v-1405q0 -14 -14 -14h-8q-14 0 -14 14v1276q-134 127 -304 127q-127 0 -215 -81.5t-88 -237.5v-279h373q14 0 14 -14 v-8q0 -15 -14 -15h-373v-768q0 -14 -14 -14h-6q-14 0 -14 14v768h-508v-768q0 -14 -15 -14h-8q-14 0 -14 14v768h-123q-14 0 -14 15zM240 819h508v279q0 112 40 188q-35 39 -104.5 75t-142.5 36q-137 0 -219 -85t-82 -259v-234z" />
</font>
</defs>
</svg>
